[ Сегодня идет свободное скачивание без начисления Download ]


Статистика раздачи
Нет
 
   
 
Top  
 
 
Убийство на 100 миллионов (2013) Информация о фильме
Оригинальное название: Убийство на 100 миллионов
Год выхода: 2013
Жанр: Детектив, драма
Режиссер: Роман Мушегян
В ролях: Олег Шкловский, Алёна Яковлева, Михаил Ремизов, Сергей Комаров (II), Екатерина Стриженова, Станислав Эрклиевский, Сергей Астахов, Роман Полянский, Мария Антипп, Борис Эстрин, Иван Николаев, Дмитрий Муляр, Евгений Данчевский.
О фильме: В одном крупном банке поздно вечером происходит взрыв. В это время на месте должен был находиться владелец банка, но кабинет разворочен, а тело не нашли. Подозрение в организации взрыва и пропаже большой суммы падает на ближайший круг банкира. У каждого был свой мотив сделать это. Все близкие люди банкира попадают под пристальное внимание полиции и криминальных кругов. В результате расследования на свет выплывают многие нелицеприятные факты из жизни всех героев истории, и как следствие, мотивы каждого из них множатся на глазах! Кто же, в конце концов, окажется тем самым, кто организовал взрыв и присвоил 100 миллионов?

Выпущено: Россия / Berg Sound
Продолжительность: 01:47:14
Озвучивание: оригинальное [лицензия]
Файл :
Качество: DVDRip (AVC)
Видео: MPEG-4 AVC, 1688 Кбит/с, 720x504@1024x504
Аудио: AC3, 2 ch, 192 Кбит/с

MI

General
Unique ID : 198651363114166823637170315644343804586 (0x9572DC6212F670C490D03A7FC701E2AA)
Complete name : E:Ybiystvo.na.100.milonov.2013.DVDRip.AVC.ExKinoRay.mkv
Format : Matroska
Format version : Version 2
File size : 1.41 GiB
Duration : 1 h 47 min
Overall bit rate : 1 880 kb/s
Movie name : Убийство на 100 миллионов 2013 from ExKinoRay
Encoded date : UTC 2016-08-25 21:09:57
Writing application : mkvmerge v7.6.0 ('Garden of Dreams') 32bit built on Feb 11 2015 00:18:47
Writing library : libebml v1.3.1 + libmatroska v1.4.2
Video
ID : 1
Format : AVC
Format/Info : Advanced Video Codec
Format profile : High@L4.1
Format settings, CABAC : Yes
Format settings, ReFrames : 12 frames
Codec ID : V_MPEG4/ISO/AVC
Duration : 1 h 47 min
Bit rate : 1 688 kb/s
Width : 720 pixels
Height : 504 pixels
Display aspect ratio : 2.032
Frame rate mode : Constant
Frame rate : 25.000 FPS
Color space : YUV
Chroma subsampling : 4:2:0
Bit depth : 8 bits
Scan type : Progressive
Bits/(Pixel*Frame) : 0.186
Stream size : 1.24 GiB (88%)
Title : Enigma
Writing library : x264 core 144 r2525 40bb568
Encoding settings : cabac=1 / ref=12 / deblock=1:-2:-2 / analyse=0x3:0x113 / me=umh / subme=10 / psy=1 / psy_rd=1.05:0.10 / mixed_ref=1 / me_range=32 / chroma_me=1 / trellis=2 / 8x8dct=1 / cqm=0 / deadzone=21,11 / fast_pskip=0 / chroma_qp_offset=-3 / threads=12 / lookahead_threads=2 / sliced_threads=0 / nr=0 / decimate=0 / interlaced=0 / bluray_compat=0 / constrained_intra=0 / bframes=9 / b_pyramid=2 / b_adapt=2 / b_bias=0 / direct=3 / weightb=1 / open_gop=0 / weightp=2 / keyint=250 / keyint_min=25 / scenecut=40 / intra_refresh=0 / rc=2pass / mbtree=0 / bitrate=1688 / ratetol=1.0 / qcomp=0.60 / qpmin=0 / qpmax=51 / qpstep=4 / cplxblur=20.0 / qblur=0.5 / ip_ratio=1.40 / pb_ratio=1.30 / aq=1:1.00
Language : English
Default : Yes
Forced : No
Color range : Limited
Color primaries : BT.601 PAL
Transfer characteristics : BT.470 System B, BT.470 System G
Matrix coefficients : BT.601
Audio
ID : 2
Format : AC-3
Format/Info : Audio Coding 3
Mode extension : CM (complete main)
Format settings, Endianness : Big
Codec ID : A_AC3
Duration : 1 h 47 min
Bit rate mode : Constant
Bit rate : 192 kb/s
Channel(s) : 2 channels
Channel positions : Front: L R
Sampling rate : 48.0 kHz
Frame rate : 31.250 FPS (1536 spf)
Compression mode : Lossy
Delay relative to video : 15 ms
Stream size : 147 MiB (10%)
Language : Russian
Default : Yes
Forced : No

Скриншоты

[Цитировать]



Показать сообщения:    

Текущее время: 11-Дек 01:20

Часовой пояс: UTC + 3


Вы не можете начинать темы
Вы не можете отвечать на сообщения
Вы не можете редактировать свои сообщения
Вы не можете удалять свои сообщения
Вы не можете голосовать в опросах
Вы не можете прикреплять файлы к сообщениям
Вы не можете скачивать файлы

!ВНИМАНИЕ!
Сайт не предоставляет электронные версии произведений, а занимается лишь коллекционированием и каталогизацией ссылок, присылаемых и публикуемых на форуме нашими читателями. Если вы являетесь правообладателем какого-либо представленного материала и не желаете, чтобы ссылка на него находилась в нашем каталоге, свяжитесь с нами, и мы незамедлительно удалим ее. Файлы для обмена на трекере предоставлены пользователями сайта, и администрация не несет ответственности за их содержание. Просьба не заливать файлы, защищенные авторскими правами, а также файлы нелегального содержания!