[ Сегодня идет свободное скачивание без начисления Download ]


Статистика раздачи
Нет
 
   
 
Top  
 
 
-Фрэнки наводит шорох / Frankie Go Boom (2012) BDRip- Русское название: Фрэнки наводит шорох
Оригинальное название: Frankie Go Boom
Страна: США
Год выпуска: 2012
Жанр: Комедия
Описание фильма:
Если близкий родственник – наркоман, значит, жди сплошных проблем и неприятностей. Вот и Фрэнк Бартлетт долгие годы страдал из-за брата-мерзавца Брюса, который с садистским удовольствием мучил, пытал и унижал его, да еще и записывал все это безобразие на видеокамеру. Теперь Брюс наконец-то решил исправиться, завязать с наркотиками и зажить простой и правильной жизнью. Но не тут-то было…
Режиссер: Джордан Робертс / Jordan Roberts
Актеры: Чарли Ханнэм, Крис О’Дауд, Лиззи Каплан, Крис Нот, Рон Перлман, Сэм Андерсон, Уитни Каммингс, Джастин Дрей, Нора Данн, Леонард Келли-Янг
Продолжительность: 01:29:01
Перевод: Одноголосый |закадровый| den904
Оригинальная аудиодорожка: английская
Cубтитры: английские

Видеокодек: MPEG-4 AVC/H.264
Битрейт видео: ~5 353 Kbps
Размер кадра: 1280x528p
Качество видео: BDRip
Аудио 1: Русский 48 kHz, DTS, 6 ch, 755 Kbps
Аудио 2: Английский 48 kHz, DTS, 6 ch, 755 KbpsСкриншоты:

MediaInfo:

General
Complete name : O:\Frankie.Go.Boom.2012.L1.BDRip.720p.mkv
Format : Matroska
File size : 4.35 GiB
Duration : 1h 29mn
Overall bit rate : 7 002 Kbps
Encoded date : UTC 2013-02-02 11:12:31
Writing application : mkvmerge v6.0.0 ('Coming Up For Air') built on Jan 20 2013 09:52:00
Writing library : libebml v1.3.0 + libmatroska v1.4.0
Video
ID : 1
Format : AVC
Format/Info : Advanced Video Codec
Format profile : [email protected]
Format settings, CABAC : Yes
Format settings, ReFrames : 5 frames
Muxing mode : Container [email protected]
Codec ID : V_MPEG4/ISO/AVC
Duration : 1h 28mn
Bit rate : 5 353 Kbps
Nominal bit rate : 5 491 Kbps
Width : 1 280 pixels
Height : 528 pixels
Display aspect ratio : 2.40:1
Frame rate : 23.976 fps
Resolution : 8 bits
Colorimetry : 4:2:0
Scan type : Progressive
Bits/(Pixel*Frame) : 0.330
Stream size : 3.33 GiB (76%)
Title : Frankie Go Boom (2012)
Writing library : x264 core 129 r2230 1cffe9f
Encoding settings : cabac=1 / ref=5 / deblock=1:0:0 / analyse=0x3:0x133 / me=umh / subme=8 / psy=1 / psy_rd=1.00:0.00 / mixed_ref=1 / me_range=16 / chroma_me=1 / trellis=1 / 8x8dct=1 / cqm=0 / deadzone=21,11 / fast_pskip=0 / chroma_qp_offset=-2 / threads=12 / lookahead_threads=2 / sliced_threads=0 / nr=0 / decimate=1 / interlaced=0 / bluray_compat=0 / constrained_intra=0 / bframes=3 / b_pyramid=2 / b_adapt=1 / b_bias=0 / direct=1 / weightb=1 / open_gop=0 / weightp=2 / keyint=250 / keyint_min=23 / scenecut=40 / intra_refresh=0 / rc_lookahead=40 / rc=2pass / mbtree=1 / bitrate=5491 / ratetol=1.0 / qcomp=0.60 / qpmin=0 / qpmax=69 / qpstep=4 / cplxblur=20.0 / qblur=0.5 / ip_ratio=1.40 / aq=1:1.00
Audio #1
ID : 2
Format : DTS
Format/Info : Digital Theater Systems
Codec ID : A_DTS
Duration : 1h 29mn
Bit rate mode : Constant
Bit rate : 755 Kbps
Channel(s) : 6 channels
Channel positions : Front: L C R, Surround: L R, LFE
Sampling rate : 48.0 KHz
Resolution : 24 bits
Stream size : 480 MiB (11%)
Title : [VO - den904] DTS, 6 ch, 755 kbps
Language : Russian
Audio #2
ID : 3
Format : DTS
Format/Info : Digital Theater Systems
Codec ID : A_DTS
Duration : 1h 29mn
Bit rate mode : Constant
Bit rate : 755 Kbps
Channel(s) : 6 channels
Channel positions : Front: L C R, Surround: L R, LFE
Sampling rate : 48.0 KHz
Resolution : 24 bits
Stream size : 480 MiB (11%)
Title : [Original] DTS, 6 ch, 755 kbps
Text
ID : 4
Format : UTF-8
Codec ID : S_TEXT/UTF8
Codec ID/Info : UTF-8 Plain Text
Время раздачи: 24/7 - круглосуточно
Спасибо - это прекрасное словo, но если Вам реально хочется меня отблагодарить, оставайтесь на раздаче как можно дольше, и тогда наша благодарность будет обоюдной!!!!

[Цитировать]



Показать сообщения:    

Текущее время: 04-Дек 11:10

Часовой пояс: UTC + 3


Вы не можете начинать темы
Вы не можете отвечать на сообщения
Вы не можете редактировать свои сообщения
Вы не можете удалять свои сообщения
Вы не можете голосовать в опросах
Вы не можете прикреплять файлы к сообщениям
Вы не можете скачивать файлы

!ВНИМАНИЕ!
Сайт не предоставляет электронные версии произведений, а занимается лишь коллекционированием и каталогизацией ссылок, присылаемых и публикуемых на форуме нашими читателями. Если вы являетесь правообладателем какого-либо представленного материала и не желаете, чтобы ссылка на него находилась в нашем каталоге, свяжитесь с нами, и мы незамедлительно удалим ее. Файлы для обмена на трекере предоставлены пользователями сайта, и администрация не несет ответственности за их содержание. Просьба не заливать файлы, защищенные авторскими правами, а также файлы нелегального содержания!