[ Сегодня идет свободное скачивание без начисления Download ]


Статистика раздачи
Качаю: [ 1 ]
Скачал: [ 5 ]
 
   
 
Top  
 
 
Нетология | SEO-специалист: как поднять продажи с помощью поискового маркетинга (2016) PCRec - Автор (режиссер): Нетология
Жанр: SEO
Описание:
Почему клиенты не находят ваш сайт по запросу в поисковых системах? Почему трафик, который вы приводите на сайт, не конвертируется в желаемое количество покупок? Узнайте ответы на онлайн-курсе «SEO-специалист: как поднять продажи с помощью поисковых систем».
Вы сможете разобраться во всех аспектах SEO, начиная от устройства поисковых систем, составления семантического ядра, заканчивая правильным наполнением сайта с эффективной перелинковкой и оптимизацией поведенческих факторов.
Продолжительность: 29:26:47
Качество видео: PCRec
Видео: AVC/H.264, 1280x720, ~592 kbps
Аудио: AAC, 2 ch, 235 kbps

Mediainfo:

Общее
Полное имя : D:\Нетология\SEO-специалист\(SEO-4) Основы устройства поисковых систем, 27.05.2016.mp4
Формат : MPEG-4
Профиль формата : Base Media / Version 2
Идентификатор кодека : mp42 (mp42/mp41/isom/avc1)
Размер файла : 951 Мбайт
Продолжительность : 2 ч. 40 м.
Режим общего битрейта : Переменный
Общий поток : 830 Кбит/сек
Дата кодирования : UTC 2016-05-27 17:41:32
Дата пометки : UTC 2016-05-27 17:41:32
Видео
Идентификатор : 1
Формат : AVC
Формат/Информация : Advanced Video Codec
Профиль формата : High@L3.2
Параметр CABAC формата : Да
Параметр ReFrames формата : 5 кадров
Идентификатор кодека : avc1
Идентификатор кодека/Информация : Advanced Video Coding
Продолжительность : 2 ч. 40 м.
Битрейт : 592 Кбит/сек
Ширина : 1280 пикселей
Высота : 720 пикселей
Соотношение сторон : 16:9
Режим частоты кадров : Постоянный
Частота кадров : 15,000 кадров/сек
Цветовое пространство : YUV
Субдискретизация насыщенности : 4:2:0
Битовая глубина : 8 бит
Тип развёртки : Прогрессивная
Бит/(Пиксели*Кадры) : 0.043
Размер потока : 678 Мбайт (71%)
Библиотека кодирования : x264 core 148 r11 a01e339
Настройки программы : cabac=1 / ref=5 / deblock=1:0:0 / analyse=0x3:0x113 / me=umh / subme=8 / psy=1 / psy_rd=1.00:0.00 / mixed_ref=1 / me_range=16 / chroma_me=1 / trellis=1 / 8x8dct=1 / cqm=0 / deadzone=21,11 / fast_pskip=1 / chroma_qp_offset=-2 / threads=22 / lookahead_threads=3 / sliced_threads=0 / nr=0 / decimate=1 / interlaced=0 / bluray_compat=0 / stitchable=1 / constrained_intra=0 / bframes=3 / b_pyramid=2 / b_adapt=2 / b_bias=0 / direct=3 / weightb=1 / open_gop=0 / weightp=2 / keyint=infinite / keyint_min=15 / scenecut=40 / intra_refresh=0 / rc_lookahead=50 / rc=crf / mbtree=1 / crf=20.0 / qcomp=0.60 / qpmin=5 / qpmax=69 / qpstep=4 / vbv_maxrate=2750 / vbv_bufsize=7500 / crf_max=0.0 / nal_hrd=none / filler=0 / ip_ratio=1.40 / aq=1:1.00
Дата кодирования : UTC 2016-05-27 17:41:32
Дата пометки : UTC 2016-05-27 17:41:32
Цветовой диапазон : Limited
Основные цвета : BT.709
Характеристики трансфера : BT.709
Коэффициенты матрицы : BT.709
Аудио
Идентификатор : 2
Формат : AAC
Формат/Информация : Advanced Audio Codec
Профиль формата : LC
Идентификатор кодека : 40
Продолжительность : 2 ч. 40 м.
Вид битрейта : Переменный
Битрейт : 235 Кбит/сек
Каналы : 2 канала
Расположение каналов : Front: L R
Частота : 48,0 КГц
Частота кадров : 46,875 кадров/сек (1024 spf)
Метод сжатия : С потерями
Размер потока : 269 Мбайт (28%)
Дата кодирования : UTC 2016-05-27 17:41:32
Дата пометки : UTC 2016-05-27 17:41:32

Программа курса:

1. Принципы работы поисковых систем
-Основы устройства поисковых систем, типы пользовательских запросов
-Факторы ранжирования сайтов
2. Постановка и отслеживание целей
-Определение целей и задач сайта
-Яндекс.Метрика, Яндекс.Вебмастер, Google Analytics, Google Webmaster
3. Работа с семантическим ядром
-Подбор семантического ядра
-Семантическое ядро для молодого сайта и сайта в «возрасте»
4. Внутренняя и внешняя оптимизация сайта
-Методы внутренней оптимизации
-Анализ и измерение показателей качества внутренней оптимизации
-Анализ ссылочных агрегаторов, доноров, ссылочной массы
5. Поисковый маркетинг
-Оптимизация поведенческих факторов
-Фильтры поисковых систем. Антиспам.
-Чек-лист по SEO-аудиту сайта
-Как правильно выбрать подрядчика по SEO и контролировать его работу
Скриншоты:

[Цитировать]



Показать сообщения:    

Текущее время: 11-Дек 05:10

Часовой пояс: UTC + 3


Вы не можете начинать темы
Вы не можете отвечать на сообщения
Вы не можете редактировать свои сообщения
Вы не можете удалять свои сообщения
Вы не можете голосовать в опросах
Вы не можете прикреплять файлы к сообщениям
Вы не можете скачивать файлы

!ВНИМАНИЕ!
Сайт не предоставляет электронные версии произведений, а занимается лишь коллекционированием и каталогизацией ссылок, присылаемых и публикуемых на форуме нашими читателями. Если вы являетесь правообладателем какого-либо представленного материала и не желаете, чтобы ссылка на него находилась в нашем каталоге, свяжитесь с нами, и мы незамедлительно удалим ее. Файлы для обмена на трекере предоставлены пользователями сайта, и администрация не несет ответственности за их содержание. Просьба не заливать файлы, защищенные авторскими правами, а также файлы нелегального содержания!