[ Сегодня идет свободное скачивание без начисления Download ]


Статистика раздачи
Нет
 
   
 
Top  
 
 
-Вымирающая порода / Dying Breed (2008) BDRemux- -Русское название: Вымирающая порода
Оригинальное название: Dying Breed
Студия: Ambience Entertainment
Страна: Австралия
Год выпуска: 2008
Жанр: Ужасы, Триллер-Описание фильма:
Сюжет основан на фантастической австралийской легенде об Александре Пирсе, преступнике 19-ого столетия по кличке «Пирожник». Прозвище такое Пирс получил за то, что после одного побега из тюрьмы он пообедал своими спутниками в дикой тасманской пустоши.
Наши дни. Группа исследователей пытается доказать, что считающийся вымершим вид тасманийского сумчатого волка все еще живет в местных лесах. Но из охотников они сами становятся добычей, когда попадают в места, обжитые потомками Пирожника - теми, кто сохранил любовь своего предка к вкусу человеческой плоти.-Режиссер: Джоди Двайер / Jody Dwyer
Актеры: Натан Филлипс, Ли Уоннелл, Билли Браун, Мирра Фолкс, Мелани Валльехо, Кен Рэдли, Илэйн Хадсон, Шеридан Харви, Питер Докер, Борис Бркич и др.-Продолжительность: 01:31:49
Перевод: Любительский |двухголосый закадровый| Twix
Оригинальная аудиодорожка: Английская
Субтитры: Английские
Навигация по главам: да- -
Рейтинг R - Детям до 17 лет обязательно присутствие родителей-Видеокодек: VC-1
Битрейт видео: ~17997 kbps
Размер кадра: 1920x1080p
Качество видео: BDRemux-Аудио 1: Русский / Dolby Digital Audio / 5.1 / 48 kHz / 448 kbps / 16-bit
Аудио 2: English / DTS-HD High-Res Audio / 5.1 / 48 kHz / 3018 kbps / 24-bit (DTS Core: 5.1 / 48 kHz / 1509 kbps / 24-bit)
Аудио 3: English / DTS-HD Master Audio / 2.0 / 48 kHz / 2159 kbps / 24-bit (DTS Core: 2.0 / 48 kHz / 1509 kbps / 24-bit)-Скриншоты:
-

MediaInfo:

General
Complete name : O:\Вымирающая порода (Dying Breed) 2008.mkv
Format : Matroska
File size : 15.2 GiB
Duration : 1h 31mn
Overall bit rate : 23.6 Mbps
Encoded date : UTC 2013-01-28 21:00:25
Writing application : mkvmerge v6.0.0 ('Coming Up For Air') built on Jan 20 2013 09:52:00
Writing library : libebml v1.3.0 + libmatroska v1.4.0
Video
ID : 1
Format : VC-1
Format profile : AP@L3
Codec ID : WVC1
Codec ID/Hint : Microsoft
Duration : 1h 31mn
Width : 1 920 pixels
Height : 1 080 pixels
Display aspect ratio : 16:9
Frame rate : 24.000 fps
Resolution : 8 bits
Colorimetry : 4:2:0
Scan type : Progressive
Audio #1
ID : 2
Format : AC-3
Format/Info : Audio Coding 3
Codec ID : A_AC3
Duration : 1h 31mn
Bit rate mode : Constant
Bit rate : 448 Kbps
Channel(s) : 6 channels
Channel positions : Front: L C R, Surround: L R, LFE
Sampling rate : 48.0 KHz
Stream size : 294 MiB (2%)
Title : Любительский (двухголосый закадровый) Twix
Language : Russian
Audio #2
ID : 3
Format : DTS
Format/Info : Digital Theater Systems
Format profile : HRA
Codec ID : A_DTS
Duration : 1h 31mn
Bit rate mode : Constant
Bit rate : 3 019 Kbps
Channel(s) : 6 channels
Channel positions : Front: L C R, Surround: L R, LFE
Sampling rate : 48.0 KHz
Resolution : 24 bits
Stream size : 1.94 GiB (13%)
Title : Оригинал
Audio #3
ID : 4
Format : DTS
Format/Info : Digital Theater Systems
Format profile : MA
Codec ID : A_DTS
Duration : 1h 31mn
Bit rate mode : Variable
Channel(s) : 2 channels
Channel positions : Front: L, R
Sampling rate : 48.0 KHz
Resolution : 24 bits
Title : Комментарии
Text
ID : 5
Format : UTF-8
Codec ID : S_TEXT/UTF8
Codec ID/Info : UTF-8 Plain Text
Menu
00:00:00.000 : en:00:00:00.000
00:09:17.542 : en:00:09:17.542
00:15:47.292 : en:00:15:47.292
00:25:05.083 : en:00:25:05.083
00:30:20.833 : en:00:30:20.833
00:42:52.875 : en:00:42:52.875
00:49:55.208 : en:00:49:55.208
00:58:43.000 : en:00:58:43.000
01:06:56.958 : en:01:06:56.958
01:14:43.125 : en:01:14:43.125
01:24:29.833 : en:01:24:29.833
01:29:14.000 : en:01:29:14.000
-Время раздачи: 24/7 - круглосуточнo
Спасибо - это прекрасное словo, но если Вам реально хочется меня отблагодарить, оставайтесь на раздаче как можно дольше, и тогда наша благодарность будет обоюдной!!!!

[Цитировать]



Показать сообщения:    

Текущее время: 07-Дек 13:42

Часовой пояс: UTC + 3


Вы не можете начинать темы
Вы не можете отвечать на сообщения
Вы не можете редактировать свои сообщения
Вы не можете удалять свои сообщения
Вы не можете голосовать в опросах
Вы не можете прикреплять файлы к сообщениям
Вы не можете скачивать файлы

!ВНИМАНИЕ!
Сайт не предоставляет электронные версии произведений, а занимается лишь коллекционированием и каталогизацией ссылок, присылаемых и публикуемых на форуме нашими читателями. Если вы являетесь правообладателем какого-либо представленного материала и не желаете, чтобы ссылка на него находилась в нашем каталоге, свяжитесь с нами, и мы незамедлительно удалим ее. Файлы для обмена на трекере предоставлены пользователями сайта, и администрация не несет ответственности за их содержание. Просьба не заливать файлы, защищенные авторскими правами, а также файлы нелегального содержания!