[ Сегодня идет свободное скачивание без начисления Download ]


Статистика раздачи
Нет
 
   
 
Top  
 
 
По следу / Skiptrace (2016) TC - Производство: Гонконг, США, Китай
Жанр: Боевик, Комедия
Режиссер: Ренни Харлин
Актеры: Джеки Чан, Джонни Ноксвил, Бинбин Фань, Эрик Цан, Ив Торрес, Уинстон Чао, Ланьсинь Чжан, Майкл Вонг, Джоэль Адриан, Пьер Бурдо
Описание:
Племянница честного полицейского попадает в неприятности и оказывается в руках у преступного синдиката. Во главе преступной группировки стоит человек, за которым протагонист следил около десяти лет. Чтобы спасти родственницу, копу приходится поймать болтливого американского игрока, с чьей помощью он может выручить девушку.

Рейтинг MPAA: PG-13 (детям до 13 лет просмотр нежелателен)
Дата мировой премьеры: 21 июля 2016
Продолжительность: 01:27:23
Качество видео: TC СЭМПЛ
Перевод: Многоголосый закадровый, любительский
Язык субтитров: Английский, китайский
Вид субтитров: Вшитые неотключаемые
Реклама: Присутствуют голосовые и текстовые вставки рекламы.
Видео: Xvid, 720x320, 1660 Кбит/с
Аудио: AC3, 2 ch, 192 kb/s

Mediainfo:

Skiptrace.2016.MVO.Telecine.14OOMB.avi
Format                         : AVI
Format/Info                    : Audio Video Interleave
File size                      : 1.46 GiB
Duration                       : 1 h 52 min
Overall bit rate               : 1 862 kb/s
Writing application            : VirtualDubMod 1.5.10.2 (build 2540/release)
Writing library                : VirtualDubMod build 2540/release
Video
ID                             : 0
Format                         : MPEG-4 Visual
Format profile                 : Advanced Simple@L5
Format settings, BVOP          : 2
Format settings, QPel          : No
Format settings, GMC           : No warppoints
Format settings, Matrix        : Custom
Codec ID                       : XVID
Codec ID/Hint                  : XviD
Duration                       : 1 h 52 min
Bit rate                       : 1 660 kb/s
Width                          : 720 pixels
Height                         : 320 pixels
Display aspect ratio           : 2.25:1
Frame rate                     : 25.000 FPS
Color space                    : YUV
Chroma subsampling             : 4:2:0
Bit depth                      : 8 bits
Scan type                      : Progressive
Compression mode               : Lossy
Bits/(Pixel*Frame)             : 0.288
Stream size                    : 1.30 GiB (89%)
Writing library                : XviD 1.2.1 (UTC 2008-12-04)
Audio
ID                             : 1
Format                         : AC-3
Format/Info                    : Audio Coding 3
Mode extension                 : CM (complete main)
Format settings, Endianness    : Big
Codec ID                       : 2000
Duration                       : 1 h 52 min
Bit rate mode                  : Constant
Bit rate                       : 192 kb/s
Channel(s)                     : 2 channels
Channel positions              : Front: L R
Sampling rate                  : 48.0 kHz
Frame rate                     : 31.250 FPS (1536 spf)
Compression mode               : Lossy
Stream size                    : 154 MiB (10%)
Alignment                      : Split accross interleaves
Interleave, duration           : 40  ms (1.00 video frame)
Interleave, preload duration   : 500  ms
Скриншоты:

[Цитировать]



Показать сообщения:    

Текущее время: 07-Дек 21:24

Часовой пояс: UTC + 3


Вы не можете начинать темы
Вы не можете отвечать на сообщения
Вы не можете редактировать свои сообщения
Вы не можете удалять свои сообщения
Вы не можете голосовать в опросах
Вы не можете прикреплять файлы к сообщениям
Вы не можете скачивать файлы

!ВНИМАНИЕ!
Сайт не предоставляет электронные версии произведений, а занимается лишь коллекционированием и каталогизацией ссылок, присылаемых и публикуемых на форуме нашими читателями. Если вы являетесь правообладателем какого-либо представленного материала и не желаете, чтобы ссылка на него находилась в нашем каталоге, свяжитесь с нами, и мы незамедлительно удалим ее. Файлы для обмена на трекере предоставлены пользователями сайта, и администрация не несет ответственности за их содержание. Просьба не заливать файлы, защищенные авторскими правами, а также файлы нелегального содержания!