[ Сегодня идет свободное скачивание без начисления Download ]


Статистика раздачи
Нет
 
   
 
Top  
 
 
-Человек будущего / O Homem do Futuro (2011) BDRemux- Русское название: Человек будущего
Оригинальное название: O Homem do Futuro
Страна: Бразилия
Студия: Globo Filmes
Год выпуска: 2011
Жанр: Фантастика, Фэнтези, Комедия
Описание фильма:
Зэро является выдающимся ученым, но неудачником, потому что 20 лет назад был публично оскорблен и потерял в колледже любовь всей его жизни. Однажды, случайный опыт с одним из его изобретений заставляет его путешествовать во времени. После шанса изменить свою жизнь, Зэро возвращается к этому полностью измененному миру.
Режиссер: Клаудио Торрес / Cl?udio Torres
Актеры: Вагнер Моура, Алини Мораес, Мария Луиза Мендонича, Fernando Ceyl?o, Габриель Брага Нуньес, Дэниэл Уэмура, Хосе Стейнберг, Мария Луиза Родригез, Грегориу Дювивьер, Bruno Gradim и др.
Продолжительность: 01:45:17
Перевод: Одноголосый закадровый |Slavnus Spacedust| по переводу |Артура Насырова|
Оригинальная аудиодорожка: Португальская
Субтитры: Русские, португальские, английские, испанские
Навигация по главам: да

Видеокодек: MPEG-4 AVC/H.264
Битрейт видео: ~20500 kbps
Размер кадра: 1920x816p
Качество видео: BDRemux
Аудио 1: Русский / Dolby Digital Audio / 2.0 / 48 kHz / 192 kbps / 16-bit
Аудио 2: Portuguese / DTS Audio / 5.1 / 48 kHz / 1536 kbps / 24-bitСкриншоты:

MediaInfo:

General
Complete name : O:\Человек из будущего (O Homem do Futuro) (Man from the Future) 2011.mkv
Format : Matroska
File size : 16.3 GiB
Duration : 1h 45mn
Overall bit rate : 22.2 Mbps
Encoded date : UTC 2013-02-01 01:15:10
Writing application : mkvmerge v6.0.0 ('Coming Up For Air') built on Jan 20 2013 09:52:00
Writing library : libebml v1.3.0 + libmatroska v1.4.0
Video
ID : 1
Format : AVC
Format/Info : Advanced Video Codec
Format profile : High@L4.1
Format settings, CABAC : Yes
Format settings, ReFrames : 5 frames
Muxing mode : Container profile=Unknown@4.1
Codec ID : V_MPEG4/ISO/AVC
Duration : 1h 45mn
Bit rate : 20.0 Mbps
Nominal bit rate : 20.5 Mbps
Width : 1 920 pixels
Height : 816 pixels
Display aspect ratio : 2.35:1
Frame rate : 24.000 fps
Resolution : 8 bits
Colorimetry : 4:2:0
Scan type : Progressive
Bits/(Pixel*Frame) : 0.533
Stream size : 14.7 GiB (90%)
Writing library : x264 core 120 r2164 da19765
Encoding settings : cabac=1 / ref=5 / deblock=1:-3:-3 / analyse=0x3:0x133 / me=umh / subme=11 / psy=1 / psy_rd=1.00:0.02 / mixed_ref=1 / me_range=48 / chroma_me=1 / trellis=2 / 8x8dct=1 / cqm=0 / deadzone=21,11 / fast_pskip=0 / chroma_qp_offset=-3 / threads=12 / sliced_threads=0 / nr=0 / decimate=0 / interlaced=0 / bluray_compat=0 / constrained_intra=0 / bframes=9 / b_pyramid=2 / b_adapt=2 / b_bias=0 / direct=3 / weightb=1 / open_gop=0 / weightp=2 / keyint=240 / keyint_min=24 / scenecut=40 / intra_refresh=0 / rc=2pass / mbtree=0 / bitrate=20500 / ratetol=1.0 / qcomp=0.70 / qpmin=0 / qpmax=69 / qpstep=4 / cplxblur=20.0 / qblur=0.5 / ip_ratio=1.40 / pb_ratio=1.25 / aq=1:1.15
Language : Portuguese
Audio #1
ID : 2
Format : AC-3
Format/Info : Audio Coding 3
Codec ID : A_AC3
Duration : 1h 45mn
Bit rate mode : Constant
Bit rate : 192 Kbps
Channel(s) : 2 channels
Channel positions : L R
Sampling rate : 48.0 KHz
Stream size : 145 MiB (1%)
Title : Одноголосый закадровый Slavnus Spacedust
Language : Russian
Audio #2
ID : 3
Format : DTS
Format/Info : Digital Theater Systems
Codec ID : A_DTS
Duration : 1h 45mn
Bit rate mode : Constant
Bit rate : 1 510 Kbps
Channel(s) : 6 channels
Channel positions : Front: L C R, Surround: L R, LFE
Sampling rate : 48.0 KHz
Resolution : 24 bits
Stream size : 1.11 GiB (7%)
Title : Оригинал
Language : Portuguese
Text #1
ID : 4
Format : UTF-8
Codec ID : S_TEXT/UTF8
Codec ID/Info : UTF-8 Plain Text
Language : Russian
Text #2
ID : 5
Format : UTF-8
Codec ID : S_TEXT/UTF8
Codec ID/Info : UTF-8 Plain Text
Language : Portuguese
Text #3
ID : 6
Format : UTF-8
Codec ID : S_TEXT/UTF8
Codec ID/Info : UTF-8 Plain Text
Text #4
ID : 7
Format : UTF-8
Codec ID : S_TEXT/UTF8
Codec ID/Info : UTF-8 Plain Text
Language : Spanish
Menu
00:00:00.000 : pt:1
00:05:00.000 : pt:2
00:10:00.000 : pt:3
00:15:00.000 : pt:4
00:20:00.000 : pt:5
00:25:00.000 : pt:6
00:30:00.000 : pt:7
00:35:00.000 : pt:8
00:40:00.000 : pt:9
00:45:00.000 : pt:10
00:50:00.000 : pt:11
00:55:00.000 : pt:12
01:00:00.000 : pt:13
01:05:00.000 : pt:14
01:10:00.000 : pt:15
01:15:00.000 : pt:16
01:20:00.000 : pt:17
01:25:00.000 : pt:18
01:30:00.000 : pt:19
01:35:00.000 : pt:20
01:40:00.000 : pt:21
01:45:00.000 : pt:21
Время раздачи: 24/7 - круглосуточно
Спасибо - это прекрасное словo, но если Вам реально хочется меня отблагодарить, оставайтесь на раздаче как можно дольше, и тогда наша благодарность будет обоюдной!!!!

[Цитировать]



Показать сообщения:    

Текущее время: 21-Янв 13:38

Часовой пояс: UTC + 3


Вы не можете начинать темы
Вы не можете отвечать на сообщения
Вы не можете редактировать свои сообщения
Вы не можете удалять свои сообщения
Вы не можете голосовать в опросах
Вы не можете прикреплять файлы к сообщениям
Вы не можете скачивать файлы

!ВНИМАНИЕ!
Сайт не предоставляет электронные версии произведений, а занимается лишь коллекционированием и каталогизацией ссылок, присылаемых и публикуемых на форуме нашими читателями. Если вы являетесь правообладателем какого-либо представленного материала и не желаете, чтобы ссылка на него находилась в нашем каталоге, свяжитесь с нами, и мы незамедлительно удалим ее. Файлы для обмена на трекере предоставлены пользователями сайта, и администрация не несет ответственности за их содержание. Просьба не заливать файлы, защищенные авторскими правами, а также файлы нелегального содержания!