[ Сегодня идет свободное скачивание без начисления Download ]


Статистика раздачи
Скачал: [ 3 ]
 
   
 
Top  
 
 
Front-end Science | БЭМ-платформа (2016) PCRec - Автор (режиссер): Владимир Гриненко
Жанр: web, frontend
Описание:
БЭМ (Блок-Элемент-Модификатор) — методология web-разработки, а также набор интерфейсных библиотек, фреймворков и вспомогательных инструментов.
Ведущий данного мастер-класса Владимир Гриненко. Руководит службой разработки БЭМ в Яндексе. Обладает профессиональными знаниями в HTML/CSS/JS. БЭМ-зависимый. Вне Яндекса руководит собственной веб-студией, консультирует проекты и помогает им расти здоровыми и счастливыми вместе с БЭМ.
Продолжительность: 05:50:50
Качество видео: PCRec
Видео: AVC/H.264, 1904x1008, ~323 - 460 Kbps
Аудио: AAC, 2 ch, 192 Kbps, CBR

Программа Мастеркласса:

1. БЭМ и верстка
- Разбиение интерфейса на блоки и элементы, использование модификаторов
- Миксы
- Типичные ошибки верстки и решения проблем
2. Файловая система
- Расположение блоков в файловой системе
- Уровни переопределения
3. Сборка БЭМ-проекта
- Декларация, бандлы
4. БЭМ и шаблонизация
- БЭМ-дерево
- Мыслим в терминах блоков
- BEMJSON
- BEMHTML
5. БЭМ и JS
6. bem-components
7. Двухуровневая архитектура
- BEMTREE
8. Библиотеки блоков
- Как организовать свою библиотеку блоков
- Требования (универсальность, расширяемость, версионируемость, etc)
- Документация
- Живые стайлгайды
- Тесты

Mediainfo:

General
Complete name                            : C:\torrent\BEM\1 2016-04-16 13-00.avi
Format                                   : AVI
Format/Info                              : Audio Video Interleave
File size                                : 435 MiB
Duration                                 : 1h 55mn
Overall bit rate                         : 528 Kbps
Writing application                      : BandiAviMuxer 1.0
Video
ID                                       : 0
Format                                   : AVC
Format/Info                              : Advanced Video Codec
Format profile                           : Main@L4
Format settings, CABAC                   : Yes
Format settings, ReFrames                : 1 frame
Codec ID                                 : H264
Duration                                 : 1h 55mn
Bit rate                                 : 323 Kbps
Width                                    : 1 904 pixels
Height                                   : 1 008 pixels
Display aspect ratio                     : 1.889
Frame rate                               : 25.000 fps
Color space                              : YUV
Chroma subsampling                       : 4:2:0
Bit depth                                : 8 bits
Scan type                                : Progressive
Bits/(Pixel*Frame)                       : 0.007
Stream size                              : 266 MiB (61%)
Audio
ID                                       : 1
Format                                   : MPEG Audio
Format version                           : Version 1
Format profile                           : Layer 2
Codec ID                                 : 50
Duration                                 : 1h 55mn
Bit rate mode                            : Constant
Bit rate                                 : 192 Kbps
Channel(s)                               : 2 channels
Sampling rate                            : 48.0 KHz
Compression mode                         : Lossy
Stream size                              : 158 MiB (36%)
Alignment                                : Aligned on interleaves
Interleave, duration                     : 24 ms (0.60 video frame)
Interleave, preload duration             : 72 ms
General
Complete name                            : C:\torrent\BEM\2 2016-04-16 14-59.avi
Format                                   : AVI
Format/Info                              : Audio Video Interleave
File size                                : 444 MiB
Duration                                 : 1h 52mn
Overall bit rate                         : 555 Kbps
Writing application                      : BandiAviMuxer 1.0
Video
ID                                       : 0
Format                                   : AVC
Format/Info                              : Advanced Video Codec
Format profile                           : Main@L4
Format settings, CABAC                   : Yes
Format settings, ReFrames                : 1 frame
Codec ID                                 : H264
Duration                                 : 1h 52mn
Bit rate                                 : 350 Kbps
Width                                    : 1 904 pixels
Height                                   : 1 040 pixels
Display aspect ratio                     : 1.85:1
Frame rate                               : 25.000 fps
Color space                              : YUV
Chroma subsampling                       : 4:2:0
Bit depth                                : 8 bits
Scan type                                : Progressive
Bits/(Pixel*Frame)                       : 0.007
Stream size                              : 280 MiB (63%)
Audio
ID                                       : 1
Format                                   : MPEG Audio
Format version                           : Version 1
Format profile                           : Layer 2
Codec ID                                 : 50
Duration                                 : 1h 52mn
Bit rate mode                            : Constant
Bit rate                                 : 192 Kbps
Channel(s)                               : 2 channels
Sampling rate                            : 48.0 KHz
Compression mode                         : Lossy
Stream size                              : 154 MiB (35%)
Alignment                                : Aligned on interleaves
Interleave, duration                     : 24 ms (0.60 video frame)
Interleave, preload duration             : 168 ms
General
Complete name                            : C:\torrent\BEM\3 2016-04-16 16-58.avi
Format                                   : AVI
Format/Info                              : Audio Video Interleave
File size                                : 584 MiB
Duration                                 : 2h 3mn
Overall bit rate                         : 662 Kbps
Writing application                      : BandiAviMuxer 1.0
Writing library                          : VirtualDub build 35491/release
Video
ID                                       : 0
Format                                   : AVC
Format/Info                              : Advanced Video Codec
Format profile                           : Main@L4
Format settings, CABAC                   : Yes
Format settings, ReFrames                : 1 frame
Codec ID                                 : H264
Duration                                 : 2h 3mn
Bit rate                                 : 460 Kbps
Width                                    : 1 896 pixels
Height                                   : 1 040 pixels
Display aspect ratio                     : 1.85:1
Frame rate                               : 25.000 fps
Color space                              : YUV
Chroma subsampling                       : 4:2:0
Bit depth                                : 8 bits
Scan type                                : Progressive
Bits/(Pixel*Frame)                       : 0.009
Stream size                              : 406 MiB (70%)
Audio
ID                                       : 1
Format                                   : MPEG Audio
Format version                           : Version 1
Format profile                           : Layer 2
Codec ID                                 : 50
Duration                                 : 2h 3mn
Bit rate mode                            : Constant
Bit rate                                 : 192 Kbps
Channel(s)                               : 2 channels
Sampling rate                            : 48.0 KHz
Compression mode                         : Lossy
Stream size                              : 170 MiB (29%)
Alignment                                : Split accross interleaves
Interleave, duration                     : 40 ms (1.00 video frame)
Interleave, preload duration             : 500 ms
Скриншоты:

[Цитировать]



Показать сообщения:    

Текущее время: 08-Дек 21:19

Часовой пояс: UTC + 3


Вы не можете начинать темы
Вы не можете отвечать на сообщения
Вы не можете редактировать свои сообщения
Вы не можете удалять свои сообщения
Вы не можете голосовать в опросах
Вы не можете прикреплять файлы к сообщениям
Вы не можете скачивать файлы

!ВНИМАНИЕ!
Сайт не предоставляет электронные версии произведений, а занимается лишь коллекционированием и каталогизацией ссылок, присылаемых и публикуемых на форуме нашими читателями. Если вы являетесь правообладателем какого-либо представленного материала и не желаете, чтобы ссылка на него находилась в нашем каталоге, свяжитесь с нами, и мы незамедлительно удалим ее. Файлы для обмена на трекере предоставлены пользователями сайта, и администрация не несет ответственности за их содержание. Просьба не заливать файлы, защищенные авторскими правами, а также файлы нелегального содержания!