[ Сегодня идет свободное скачивание без начисления Download ]


Статистика раздачи
Нет
 
   
 
Top  
 
 
Команда Че (2012) WEBRip - Производство: Россия \ Группа компаний «ВайТ Медиа»
Жанр: Детектив, Криминал
Режиссер: Александр Сухарев
Актеры: Мартиньш Вилсонс, Александр Пашков, Анастасия Городенцева, Михаил Скачков, Юрий Воробьёв, Дмитрий Янышевский, Екатерина Мадалинская, Руслан Ягудин, Александр Никольский, Ника Балина и др...
Описание:
Сериал рассказывает о ежедневной работе полицейских, демонстрирует методы расследования, цепочки поиска преступников и многие другие интересные и опасные моменты работы отдела убийств. Главный герой Сергей Чегодаев – майор полиции. Решительный, смелый, с волевым характером, он не останавливается ни перед какими трудностями. Его коллега капитан полиции Андрей Горянов, на первый взгляд - полная противоположность Чегодаева, а лейтенант Варвара Соболева – новичок, только прибыла в подразделение из училища. Именно такие, совершенно не похожие друг на друга напарники становятся верной командой, с помощью которой Чегодаеву предстоит разрешить множество неожиданных и запутанных дел.

Возраст: 16+ (зрителям, достигшим 16 лет)
Продолжительность: ~ 00:46:00
Качество видео: WEBRip
Видео: Xvid, 720x400 (16:9), ~1 093 Kbps
Аудио: AC3, 2 ch, 192 kbps, CBR

Mediainfo:

Общее
Полное имя                               : D:\Мои фильмы\Komanda_Che_1-40iz40_2012_XviD_WEBRip\Komanda_Che_01_WEBRip.avi
Формат                                   : AVI
Формат/Информация                        : Audio Video Interleave
Размер файла                             : 445 Мбайт
Продолжительность                        : 48 м.
Общий поток                              : 1295 Кбит/сек
Библиотека кодирования                   : VirtualDub build 35491/release
Видео
Идентификатор                            : 0
Формат                                   : MPEG-4 Visual
Профиль формата                          : Advanced [email protected]
Параметр BVOP формата                    : 2
Параметр QPel формата                    : Нет
Параметр GMC формата                     : Без точки перехода
Параметр матрицы формата                 : Default (H.263)
Идентификатор кодека                     : XVID
Идентификатор кодека/Подсказка           : XviD
Продолжительность                        : 48 м.
Битрейт                                  : 1093 Кбит/сек
Ширина                                   : 720 пикселей
Высота                                   : 400 пикселей
Соотношение сторон                       : 16:9
Частота кадров                           : 25,000 кадров/сек
Цветовое пространство                    : YUV
Субдискретизация насыщенности            : 4:2:0
Битовая глубина                          : 8 бит
Тип развёртки                            : Прогрессивная
Метод сжатия                             : С потерями
Бит/(Пиксели*Кадры)                      : 0.152
Размер потока                            : 376 Мбайт (84%)
Библиотека кодирования                   : XviD 67
Аудио
Идентификатор                            : 1
Формат                                   : AC-3
Формат/Информация                        : Audio Coding 3
Расширение режима                        : CM (complete main)
Параметр Endianness формата              : Big
Идентификатор кодека                     : 2000
Продолжительность                        : 48 м.
Вид битрейта                             : Постоянный
Битрейт                                  : 192 Кбит/сек
Каналы                                   : 2 канала
Расположение каналов                     : Front: L R
Частота                                  : 44,1 КГц
Частота кадров                           : 28,711 кадров/сек (1536 spf)
Метод сжатия                             : С потерями
Размер потока                            : 65,9 Мбайт (15%)
Выравнивание                             : Соединение по промежуткам
Продолжительность промежутка             : 40  мс. (1,00 видеокадр)
Время предзагрузки промежутка            : 522  мс.
Скриншоты:

[Цитировать]



Показать сообщения:    

Текущее время: 04-Дек 17:22

Часовой пояс: UTC + 3


Вы не можете начинать темы
Вы не можете отвечать на сообщения
Вы не можете редактировать свои сообщения
Вы не можете удалять свои сообщения
Вы не можете голосовать в опросах
Вы не можете прикреплять файлы к сообщениям
Вы не можете скачивать файлы

!ВНИМАНИЕ!
Сайт не предоставляет электронные версии произведений, а занимается лишь коллекционированием и каталогизацией ссылок, присылаемых и публикуемых на форуме нашими читателями. Если вы являетесь правообладателем какого-либо представленного материала и не желаете, чтобы ссылка на него находилась в нашем каталоге, свяжитесь с нами, и мы незамедлительно удалим ее. Файлы для обмена на трекере предоставлены пользователями сайта, и администрация не несет ответственности за их содержание. Просьба не заливать файлы, защищенные авторскими правами, а также файлы нелегального содержания!