[ Сегодня идет свободное скачивание без начисления Download ]


Статистика раздачи
Нет
 
   
 
Top  
 
 
-Одиссея сыщика Гурова (1-12 серии из 24) (2012) DVB [Обновляемая]-
Оригинальное название: Одиссея сыщика Гурова
Год выпуска: 2012
Страна: Россия / Мело-фильм
Жанр: криминал, детектив-
Премьера (РФ): 19 января 2013 (НТВ)
Режиссер: Федор Петрухин
Актеры: Сергей Маховиков, Борис Покровский, Алиса Признякова, Евгения Чиркова, Владимир Стержаков, Игорь Иванов, Александр Нехороших, Андрей Зайцев, Роман Фролов, Дмитрий Толкачев, Екатерина Архарова, Ольга Родина, Владимир Колида, Михаил Асанкин, Константин Силаков, Олег Флеер, Виталий Шевелев, Владимир Гараев

Описание фильма: Гроза преступного мира возвращается! Тот самый Гуров — немногословный, невозмутимый, непреклонный, лучший сыщик МУРа — снова идет в бой, и покой ему только снится! У него не бывает нераскрытых дел и безвыходных ситуаций. Ему по силам вывести на чистую воду любого бандита. Он доверяет своей интуиции, никогда не забывает о дедукции и всегда опережает противника. С ним работает команда верных единомышленников, а бессменный начальник — генерал Орлов — по-прежнему готов подставить плечо своему верному товарищу! В новых сериях Льву Гурову предстоит раскрыть дело «оборотней в погонах», разобраться в обстоятельствах гибели директора телеканала, найти убийцу в армии врагов известного бизнесмена, разыскать похитителей олигарха...-Продолжительность: серия ~ 00:45
Качество видео: DVB
Видеокодек: MPEG2
Битрейт видео: ~5141kbps avg
Размер кадра: 720x576 (4:3), 25.000 fps
Аудиокодек: MPEG Audio Layer 2
Аудио: 48 kHz, 2 ch, ~192 kbps avg
Субтитры: отсутствуют

MediaInfo:

Format : MPEG-PS
File size : 1.70 GiB
Duration : 44mn 47s
Overall bit rate mode : Variable
Overall bit rate : 5 441 Kbps
Writing library : (c) 1998-2012 Womble Multimedia, Inc. / MPEG Video Wizard DVD 5.0.1.100 (03/2011) / Sep 7 2012
Video
ID : 224 (0xE0)
Format : MPEG Video
Format version : Version 2
Format profile : [email protected]
Format settings, BVOP : Yes
Format settings, Matrix : Custom
Format settings, GOP : Variable
Duration : 44mn 47s
Bit rate mode : Variable
Bit rate : 5 141 Kbps
Maximum bit rate : 15.0 Mbps
Width : 720 pixels
Height : 576 pixels
Display aspect ratio : 4:3
Frame rate : 25.000 fps
Standard : PAL
Color space : YUV
Chroma subsampling : 4:2:0
Bit depth : 8 bits
Scan type : Interlaced
Scan order : Top Field First
Compression mode : Lossy
Bits/(Pixel*Frame) : 0.496
Stream size : 1.61 GiB (94%)
Audio
ID : 192 (0xC0)
Format : MPEG Audio
Format version : Version 1
Format profile : Layer 2
Duration : 44mn 47s
Bit rate mode : Constant
Bit rate : 192 Kbps
Channel(s) : 2 channels
Sampling rate : 48.0 KHz
Compression mode : Lossy
Stream size : 61.5 MiB (4%)
Скриншоты:

Одиссея сыщика Гурова [1-12 серия из 24] (2012) SATRip [Обновляемая]Время раздачи: 24/7

[Цитировать]



Показать сообщения:    

Текущее время: 05-Дек 11:35

Часовой пояс: UTC + 3


Вы не можете начинать темы
Вы не можете отвечать на сообщения
Вы не можете редактировать свои сообщения
Вы не можете удалять свои сообщения
Вы не можете голосовать в опросах
Вы не можете прикреплять файлы к сообщениям
Вы не можете скачивать файлы

!ВНИМАНИЕ!
Сайт не предоставляет электронные версии произведений, а занимается лишь коллекционированием и каталогизацией ссылок, присылаемых и публикуемых на форуме нашими читателями. Если вы являетесь правообладателем какого-либо представленного материала и не желаете, чтобы ссылка на него находилась в нашем каталоге, свяжитесь с нами, и мы незамедлительно удалим ее. Файлы для обмена на трекере предоставлены пользователями сайта, и администрация не несет ответственности за их содержание. Просьба не заливать файлы, защищенные авторскими правами, а также файлы нелегального содержания!