[ Сегодня идет свободное скачивание без начисления Download ]


Статистика раздачи
Нет
 
   
 
Top  
 
 
-Скала / The Rock (1996) BDRip- Русское название: Скала
Оригинальное название: The Rock
Год выпуска: 1996
Страна: США
Жанр: Боевик, Триллер, Приключения-Описание фильма:
Генерал элитных диверсионных спецсил США, за плечами которого опыт чуть ли не всех войн планеты, похищает со своими лучшими подчиненными ракеты со смертоносным газом и захватывает в заложники туристов в бывшей тюрьме «Алькатрас», находящейся на острове в бухте Сан-Франциско. Они требуют по миллиону долларов семьям погибших и кругленькую сумму себе. Для того, чтобы обезвредить группу, из тюрьмы вытаскивают британского шпиона, когда-то совершившего побег из этой тюрьмы.-Режиссер: Майкл Бэй
Актеры: Шон Коннери, Николас Кейдж, Эд Харрис, Джон Спенсер, Дэвид Морс, Уильям Форсайт, Майкл Бьен, Ванесса Марсель, Джон С. МакГинли, Грегори Спорледер, Тони Тодд, Букем Вудбайн
Продолжительность: 02:16:29
Перевод: Профессиональный (полное дублирование), Профессиональный (многоголосый, закадровый) - "Карусель"
Язык субтитров: Русский, английский
Вид субтитров: Вшитые отключаемые- -Дата мировой премьеры: 7 июня 1996
Дата российской премьеры: 12 октября 1996
Дата выхода DVD релиза: 18 июня 2009, «Уолт Дисней Компани СНГ»
Дата выхода Blu-Ray релиза: 23 ноября 2010, «Уолт Дисней Компани СНГ»
Видеокодек: MPEG-4 AVC/H.264
Битрейт видео: ~17,4 Мбит/сек
Размер кадра: 1920x816
Качество видео: BDRip 1080p
Контейнер: MKV
Аудиокодек: AC3
Аудио #1: Русский ( AC3 / 5.1 / 48 kHz / 640 kbps ) - Дубляж
Аудио #2: Русский ( AC3 / 5.1 / 48 kHz / 640 kbps ) - MVO "Карусель"
Аудио #3: Английский ( AC3 / 5.1 / 48 kHz / 640 kbps )-

MediaInfo:

Общее
Уникальный идентификатор : 227455907735662097386289068150426455142 (0xAB1E6A146335EB738EA5311273744C66)
Полное имя : Скала _ The Rock.(1996).BDRip 1080p .mkv
Формат : Matroska
Версия формата : Version 4 / Version 2
Размер файла : 18,8 Гбайт
Продолжительность : 2 ч. 16 м.
Общий поток : 19,7 Мбит/сек
Название фильма : Скала _ The Rock (1996).Title0.BlurayRip
Дата кодирования : UTC 2013-02-01 12:46:24
Программа кодирования : mkvmerge v6.0.0 ('Coming Up For Air') built on Jan 20 2013 09:52:00
Библиотека кодирования : libebml v1.3.0 + libmatroska v1.4.0
Видео
Идентификатор : 1
Формат : AVC
Формат/Информация : Advanced Video Codec
Профиль формата : [email protected]
Параметр CABAC формата : Нет
Параметр ReFrames формата : 2 кадра
Параметр GOP формата : M=1, N=12
Идентификатор кодека : V_MPEG4/ISO/AVC
Продолжительность : 2 ч. 16 м.
Битрейт : 17,4 Мбит/сек
Ширина : 1920 пикселей
Высота : 816 пикселей
Соотношение сторон : 2,35:1
Режим частоты кадров : Постоянный
Частота кадров : 23,962 кадра/сек
Цветовое пространство : YUV
Субдискретизация насыщенности : 4:2:0
Битовая глубина : 8 бит
Тип развёртки : Прогрессивная
Бит/(Пиксели*Кадры) : 0.462
Размер потока : 16,6 Гбайт (88%)
Default : Да
Forced : Нет
Аудио #1
Идентификатор : 4
Формат : AC-3
Формат/Информация : Audio Coding 3
Расширение режима : CM (complete main)
Параметр Endianness формата : Big
Идентификатор кодека : A_AC3
Продолжительность : 2 ч. 16 м.
Вид битрейта : Постоянный
Битрейт : 640 Кбит/сек
Каналы : 6 каналов
Расположение каналов : Front: L C R, Side: L R, LFE
Частота : 48,0 КГц
Битовая глубина : 16 бит
Метод сжатия : С потерями
Размер потока : 625 Мбайт (3%)
Язык : English
Default : Нет
Forced : Нет
Аудио #2
Идентификатор : 5
Формат : AC-3
Формат/Информация : Audio Coding 3
Расширение режима : CM (complete main)
Параметр Endianness формата : Big
Идентификатор кодека : A_AC3
Продолжительность : 2 ч. 16 м.
Вид битрейта : Постоянный
Битрейт : 640 Кбит/сек
Каналы : 6 каналов
Расположение каналов : Front: L C R, Side: L R, LFE
Частота : 48,0 КГц
Битовая глубина : 16 бит
Метод сжатия : С потерями
Размер потока : 625 Мбайт (3%)
Язык : Russian
Default : Да
Forced : Нет
Аудио #3
Идентификатор : 6
Формат : AC-3
Формат/Информация : Audio Coding 3
Расширение режима : CM (complete main)
Параметр Endianness формата : Big
Идентификатор кодека : A_AC3
Продолжительность : 2 ч. 16 м.
Вид битрейта : Постоянный
Битрейт : 640 Кбит/сек
Каналы : 6 каналов
Расположение каналов : Front: L C R, Side: L R, LFE
Частота : 48,0 КГц
Битовая глубина : 16 бит
Метод сжатия : С потерями
Размер потока : 625 Мбайт (3%)
Язык : Russian
Default : Нет
Forced : Нет
Текст #1
Идентификатор : 2
Формат : VobSub
Режим смешивания : zlib
Идентификатор кодека : S_VOBSUB
Идентификатор кодека/Информация : The same subtitle format used on DVDs
Язык : English
Default : Да
Forced : Нет
Текст #2
Идентификатор : 3
Формат : VobSub
Режим смешивания : zlib
Идентификатор кодека : S_VOBSUB
Идентификатор кодека/Информация : The same subtitle format used on DVDs
Язык : Russian
Default : Нет
Forced : Нет
Меню
00:00:00.000 : en:(01)00:00:00:000
00:05:00.000 : en:(02)00:05:00:000
00:10:00.000 : en:(03)00:10:00:000
00:15:00.000 : en:(04)00:15:00:000
00:20:00.000 : en:(05)00:20:00:000
00:25:00.000 : en:(06)00:25:00:000
00:30:00.000 : en:(07)00:30:00:000
00:35:00.000 : en:(08)00:35:00:000
00:40:00.000 : en:(09)00:40:00:000
00:45:00.000 : en:(10)00:45:00:000
00:50:00.000 : en:(11)00:50:00:000
00:55:00.000 : en:(12)00:55:00:000
01:00:00.000 : en:(13)01:00:00:000
01:05:00.000 : en:(14)01:05:00:000
01:10:00.000 : en:(15)01:10:00:000
01:15:00.000 : en:(16)01:15:00:000
01:20:00.000 : en:(17)01:20:00:000
01:25:00.000 : en:(18)01:25:00:000
01:30:00.000 : en:(19)01:30:00:000
01:35:00.000 : en:(20)01:35:00:000
01:40:00.000 : en:(21)01:40:00:000
01:45:00.000 : en:(22)01:45:00:000
01:50:00.000 : en:(23)01:50:00:000
01:55:00.000 : en:(24)01:55:00:000
02:00:00.000 : en:(25)02:00:00:000
02:05:00.000 : en:(26)02:05:00:000
02:10:00.000 : en:(27)02:10:00:000
02:15:00.000 : en:(28)02:15:00:000
-Скриншоты:




Время раздачи: с 10:00 до 23:00 ежедневно

[Цитировать]



Показать сообщения:    

Текущее время: 04-Дек 17:18

Часовой пояс: UTC + 3


Вы не можете начинать темы
Вы не можете отвечать на сообщения
Вы не можете редактировать свои сообщения
Вы не можете удалять свои сообщения
Вы не можете голосовать в опросах
Вы не можете прикреплять файлы к сообщениям
Вы не можете скачивать файлы

!ВНИМАНИЕ!
Сайт не предоставляет электронные версии произведений, а занимается лишь коллекционированием и каталогизацией ссылок, присылаемых и публикуемых на форуме нашими читателями. Если вы являетесь правообладателем какого-либо представленного материала и не желаете, чтобы ссылка на него находилась в нашем каталоге, свяжитесь с нами, и мы незамедлительно удалим ее. Файлы для обмена на трекере предоставлены пользователями сайта, и администрация не несет ответственности за их содержание. Просьба не заливать файлы, защищенные авторскими правами, а также файлы нелегального содержания!