[ Сегодня идет свободное скачивание без начисления Download ]


Статистика раздачи
Качаю: [ 4 ]
Скачал: [ 10 ]
 
   
 
Top  
 
 
ProfIT | PHP (1-3 уровни): Введение в профессию/Профессиональное программирование/Повышение квалификации (2016) PCRec - Автор (режиссер): Альберт Степанцев
Производство: ProfIT
Жанр: Веб-разработка, backend, PHP, базы данных, DevOps
Описание:
О языке программирования PHP ходят много мифов. Мол неправильный он, некрасивый, ООП в нём ненастоящее... Почему же тогда его используют Facebook и ВКонтакте, Википедия и Badoo? — потому что это очень гибкий язык, позволяющий создавать веб-приложения любой сложности! - потому что изучить PHP очень легко, а начать применять на практике можно буквально после нескольких уроков! - потому что современный PHP очень быстрый и нетребовательный к памяти, идеален для применения в системах с высокой нагрузкой!
Это тот же самый курс что уже есть на форуме ProfIT | PHP (1-3 уровень): Введение в профессию/Профессиональное программирование/Повышение квалификации (2016) PCRec, но немного поработал над шипением. Для этого оставлю семпл с дорожкой до и после.
Продолжительность: 33:11:04
Качество видео: PCRec
Видео: AVC/H.264, 1280x706, ~208 Kbps
Аудио: AAC, 1 ch, 97kbps

PHP-1: введение в профессию

1. Быстрый старт: выражения и переменные, типы
2. Функции. Операторы контроля. Включение файлов.
3. Массивы. Циклы. Взаимодействие с пользователем.
4. Повторение пройденного
5. Работа с файлами на сервере. Загрузка от клиента.
6. Классы и объекты. Введение в ООП.
7. Объектно-ориентированный подход
8. Работа с базой данных

PHP-2: профессиональное программирование

1. Модели данных и ООП
2. Продолжение разговора о моделях
3. Изоляция уровня представления
4. Контроллеры и фронт-контроллер
5. Исключения
6. Современные стандарты PHP
7. "Новые" возможности PHP
8. Обзор современных фреймворков

PHP-3: Повышение квалификации

1. Composer и Phing - вместе веселее!
2. Миграции - управляем изменениями в БД
3. Консольное приложение и его тайны
4. Внутри PHP: ссылки и управление памятью
5. PHP Reflection API
6. Веб-сервисы, распределенная архитектура и REST
7. Введение в безопасную разработку

Mediainfo:

General
04_track1.mp4
Format                         : MPEG-4
Format profile                 : Base Media
Codec ID                       : isom
File size                      : 181 MiB
Duration                       : 1h 22mn
Overall bit rate mode          : Variable
Overall bit rate               : 304 Kbps
Encoded date                   : UTC 2016-07-12 14:51:32
Tagged date                    : UTC 2016-07-12 14:51:32
Writing application            : Yamb 2.1.0.0 [http://yamb.unite-video.com]
Video
ID                             : 1
Format                         : AVC
Format/Info                    : Advanced Video Codec
Format profile                 : [url=mailto:Main@L3.1]Main@L3.1[/url]
Format settings, CABAC         : Yes
Format settings, ReFrames      : 1 frame
Codec ID                       : avc1
Codec ID/Info                  : Advanced Video Coding
Duration                       : 1h 22mn
Bit rate                       : 204 Kbps
Maximum bit rate               : 5 221 Kbps
Width                          : 1 280 pixels
Height                         : 684 pixels
Display aspect ratio           : 1.85:1
Frame rate mode                : Constant
Frame rate                     : 15.000 fps
Color space                    : YUV
Chroma subsampling             : 4:2:0
Bit depth                      : 8 bits
Scan type                      : Progressive
Bits/(Pixel*Frame)             : 0.016
Stream size                    : 121 MiB (67%)
Encoded date                   : UTC 2016-07-12 14:51:32
Tagged date                    : UTC 2016-07-12 14:51:49
Audio
ID                             : 2
Format                         : AAC
Format/Info                    : Advanced Audio Codec
Format profile                 : LC
Codec ID                       : 40
Duration                       : 1h 22mn
Bit rate mode                  : Variable
Bit rate                       : 98.0 Kbps
Maximum bit rate               : 103 Kbps
Channel(s)                     : 1 channel
Channel positions              : Front: C
Sampling rate                  : 44.1 KHz
Compression mode               : Lossy
Stream size                    : 58.2 MiB (32%)
Encoded date                   : UTC 2016-07-12 14:51:46
Tagged date                    : UTC 2016-07-12 14:51:49
Скриншоты:

[Цитировать]



Показать сообщения:    

Текущее время: 11-Дек 14:55

Часовой пояс: UTC + 3


Вы не можете начинать темы
Вы не можете отвечать на сообщения
Вы не можете редактировать свои сообщения
Вы не можете удалять свои сообщения
Вы не можете голосовать в опросах
Вы не можете прикреплять файлы к сообщениям
Вы не можете скачивать файлы

!ВНИМАНИЕ!
Сайт не предоставляет электронные версии произведений, а занимается лишь коллекционированием и каталогизацией ссылок, присылаемых и публикуемых на форуме нашими читателями. Если вы являетесь правообладателем какого-либо представленного материала и не желаете, чтобы ссылка на него находилась в нашем каталоге, свяжитесь с нами, и мы незамедлительно удалим ее. Файлы для обмена на трекере предоставлены пользователями сайта, и администрация не несет ответственности за их содержание. Просьба не заливать файлы, защищенные авторскими правами, а также файлы нелегального содержания!