[ Сегодня идет свободное скачивание без начисления Download ]


Статистика раздачи
Качаю: [ 1 ]
Скачал: [ 9 ]
 
   
 
Top  
 
 
Специалист | Linux/FreeBSD. Уровень «На старт». Эффективная работа в командной строке (2016) PCRec - Автор (режиссер): Лохтуров Вячеслав
Производство: Специалист
Жанр: Системное администрирование
Описание:
Вы, наверное, не раз слышали, что системой Linux могут пользоваться только красноглазые хакеры и крекеры (не путать с печеньем), а освоить FreeBSD в состоянии только студент-отличник из Беркли. Так вот, это неправда.
И Linux и FreeBSD являются наследниками системы UNIX, одной из самых выдающихся операционных систем в IT-индустрии. Следы этой системы можно найти и в умных холодильниках, и в космических аппаратах. Из UNIX выросли MacOSX и Android. Секрет такой популярности — в ПРОСТОТЕ, а еще в продуманности и гибкости системы. Да что говорить, даже такой антагонист UNIX как Microsoft с внедрением PowerShell фактически признает удобство классического UNIX-интерфейса – командной строки. С этим интерфейсом можно встретится и в современных IP-телефонных системах, и в сертифицированных по ГОСТу VPN-концентраторах, и в дорогостоящих устройствах компании Cisco. Умение работать с командной строкой является необходимым качеством для любого квалифицированного IT-инженера. А если кому-то этот способ работы кажется менее удобным, чем иконки, окошечки и закладочки, так это, как в анекдоте про кошек, командную строку надо уметь готовить: знать хитрости и нюансы этого интерфейса.
Продолжительность: 04:42:23
Качество видео: PCRec
Видео: AVC/H.264, 960x720, ~424 Kbps
Аудио: AAC, 2 ch, 118 Kbps, VBR

Программа курса

1. Знакомство с UNIX
История и стандарты
Организация системы
Подключение к системе
Структура команд
2. Файлы в UNIX
Структура файловой системы
Виды файловых систем (extN, devfs, procfs, …)
Виды файлов
Точки монтирования файловых систем
3. Процессы в UNIX
Назначение процессов и их атрибуты
Механизмы взаимодействия процессов
4. Система безопасности и права доступа
Модель безопасности UNIX
5. Программирование на shell
Отличие программ на shell от традиционных языков программирования

Mediainfo:

General
Complete name                            : 1.mp4
Format                                   : MPEG-4
Format profile                           : Base Media / Version 2
Codec ID                                 : mp42 (mp42/mp41/isom/avc1)
File size                                : 1.08 GiB
Duration                                 : 4h 42mn
Overall bit rate mode                    : Variable
Overall bit rate                         : 546 Kbps
Encoded date                             : UTC 2016-05-11 06:22:07
Tagged date                              : UTC 2016-05-11 06:22:07
Video
ID                                       : 1
Format                                   : AVC
Format/Info                              : Advanced Video Codec
Format profile                           : [url=mailto:High@L3.2]High@L3.2[/url]
Format settings, CABAC                   : Yes
Format settings, ReFrames                : 5 frames
Codec ID                                 : avc1
Codec ID/Info                            : Advanced Video Coding
Duration                                 : 4h 42mn
Bit rate                                 : 424 Kbps
Width                                    : 960 pixels
Height                                   : 720 pixels
Display aspect ratio                     : 4:3
Frame rate mode                          : Constant
Frame rate                               : 21.667 fps
Color space                              : YUV
Chroma subsampling                       : 4:2:0
Bit depth                                : 8 bits
Scan type                                : Progressive
Bits/(Pixel*Frame)                       : 0.028
Stream size                              : 857 MiB (78%)
Writing library                          : x264 core 148 r11 a01e339
Encoding settings                        : cabac=1 / ref=5 / deblock=1:0:0 / analyse=0x3:0x113 / me=umh / subme=8 / psy=1 / psy_rd=1.00:0.00 / mixed_ref=1 / me_range=16 / chroma_me=1 / trellis=1 / 8x8dct=1 / cqm=0 / deadzone=21,11 / fast_pskip=1 / chroma_qp_offset=-2 / threads=22 / lookahead_threads=3 / sliced_threads=0 / nr=0 / decimate=1 / interlaced=0 / bluray_compat=0 / stitchable=1 / constrained_intra=0 / bframes=3 / b_pyramid=2 / b_adapt=2 / b_bias=0 / direct=3 / weightb=1 / open_gop=0 / weightp=2 / keyint=infinite / keyint_min=21 / scenecut=40 / intra_refresh=0 / rc_lookahead=50 / rc=crf / mbtree=1 / crf=20.0 / qcomp=0.60 / qpmin=5 / qpmax=69 / qpstep=4 / vbv_maxrate=2750 / vbv_bufsize=7500 / crf_max=0.0 / nal_hrd=none / filler=0 / ip_ratio=1.40 / aq=1:1.00
Encoded date                             : UTC 2016-05-11 06:22:07
Tagged date                              : UTC 2016-05-11 06:22:07
Color range                              : Limited
Color primaries                          : BT.709
Transfer characteristics                 : BT.709
Matrix coefficients                      : BT.709
Audio
ID                                       : 2
Format                                   : AAC
Format/Info                              : Advanced Audio Codec
Format profile                           : LC
Codec ID                                 : 40
Duration                                 : 4h 42mn
Bit rate mode                            : Variable
Bit rate                                 : 118 Kbps
Channel(s)                               : 2 channels
Channel(s)_Original                      : 1 channel
Channel positions                        : Front: C
Sampling rate                            : 48.0 KHz
Frame rate                               : 46.875 fps (1024 spf)
Compression mode                         : Lossy
Stream size                              : 238 MiB (22%)
Encoded date                             : UTC 2016-05-11 06:22:07
Tagged date                              : UTC 2016-05-11 06:22:07
Скриншоты:

[Цитировать]



Показать сообщения:    

Текущее время: 10-Дек 00:21

Часовой пояс: UTC + 3


Вы не можете начинать темы
Вы не можете отвечать на сообщения
Вы не можете редактировать свои сообщения
Вы не можете удалять свои сообщения
Вы не можете голосовать в опросах
Вы не можете прикреплять файлы к сообщениям
Вы не можете скачивать файлы

!ВНИМАНИЕ!
Сайт не предоставляет электронные версии произведений, а занимается лишь коллекционированием и каталогизацией ссылок, присылаемых и публикуемых на форуме нашими читателями. Если вы являетесь правообладателем какого-либо представленного материала и не желаете, чтобы ссылка на него находилась в нашем каталоге, свяжитесь с нами, и мы незамедлительно удалим ее. Файлы для обмена на трекере предоставлены пользователями сайта, и администрация не несет ответственности за их содержание. Просьба не заливать файлы, защищенные авторскими правами, а также файлы нелегального содержания!