[ Today is free to download without increasing Download ]

DL-List and Torrent activity
Complete: [ 1 ]
Не бойся, я с тобой! (1981) HDTVRip Информация о фильме
Название: Не бойся, я с тобой!
Год выхода: 1981
Жанр: Боевик, приключения
Режиссёр: Юлий Гусман
В ролях: Мухтарбек Кантемиров, Лев Дуров, Полад Бюль-Бюль оглы, Гамида Омарова, Гасанага Турабов, Мирза Бабаев, Сергей Юрский, Мухтар Маниев, Александр Шаровский, Джафар Новрузов, Насиба Зейналова, Садых Гусейнов
О фильме: Начало XX века. Российская империя, Азербайджан. Герои фильма, артисты цирка Рустам и Сан Саныч, приезжают на родину Рустама. Втянутые, помимо своей воли, в любовную историю певца Теймура и дочери Фарзали-бека Телли, они помогают им обмануть жадного отца девушки...

Страна: СССР
Студия: Азербайджанфильм
Продолжительность: 02:25:44
Перевод: Не требуется (оригинальный)
Формат: avi
Качество: HDTVRip (HDTV.1080i)
Видео: XviD, 640х496, 25fps, 1289kbps
Аудио: MPEG Layer 3, 2ch, 48000Hz, 128kbps


Complete name : Ne.Boisa.A.S.Toboi.1981.O.HDTVRip.1400.CurHaJI.avi
Format : AVI
Format/Info : Audio Video Interleave
File size : 1.45 GiB
Duration : 2h 25mn
Overall bit rate : 1 427 Kbps
Movie name : Ne.Boisa.A.S.Toboi.1981.O.HDTVRip.1400.CurHaJI
Writing application : VirtualDubMod | www.virtualdub-fr.org || (build 2550/release)
Writing library : VirtualDub build 35491/release
ID : 0
Format : MPEG-4 Visual
Format profile : Advanced Simple@L5
Format settings, BVOP : 2
Format settings, QPel : No
Format settings, GMC : No warppoints
Format settings, Matrix : Custom
Codec ID : XVID
Codec ID/Hint : XviD
Duration : 2h 25mn
Bit rate : 1 289 Kbps
Width : 640 pixels
Height : 496 pixels
Display aspect ratio : 1.290
Frame rate : 25.000 fps
Color space : YUV
Chroma subsampling : 4:2:0
Bit depth : 8 bits
Scan type : Progressive
Compression mode : Lossy
Bits/(Pixel*Frame) : 0.162
Stream size : 1.31 GiB (90%)
Writing library : XviD 73
ID : 1
Format : MPEG Audio
Format version : Version 1
Format profile : Layer 3
Codec ID : 55
Codec ID/Hint : MP3
Duration : 2h 25mn
Bit rate mode : Constant
Bit rate : 128 Kbps
Channel(s) : 2 channels
Sampling rate : 48.0 KHz
Compression mode : Lossy
Stream size : 133 MiB (9%)
Alignment : Aligned on interleaves
Interleave, duration : 40 ms (1.00 video frame)
Interleave, preload duration : 504 ms
Writing library : LAME3.99r
Encoding settings : -m s -V 4 -q 2 -lowpass 17 -b 128



Display posts:    

Current time is: 26-Oct 05:19

All times are UTC + 3

You cannot post new topics in this forum
You cannot reply to topics in this forum
You cannot edit your posts in this forum
You cannot delete your posts in this forum
You cannot vote in polls in this forum
You cannot attach files in this forum
You cannot download files in this forum

The site does not give electronic versions of products, and is engaged only in a collecting and cataloguing of the references sent and published at a forum by our readers. If you are the legal owner of any submitted material and do not wish that the reference to it was in our catalogue, contact us and we shall immediately remove her. Files for an exchange on tracker are given by users of a site, and the administration does not bear the responsibility for their maintenance. The request to not fill in the files protected by copyrights, and also files of the illegal maintenance!