[ Сегодня идет свободное скачивание без начисления Download ]


Статистика раздачи
Нет
 
   
 
Top  
 
 
«The legend will never be the same» Информация о фильме
Название: Книга джунглей
Оригинальное название: The Jungle Book
Год выхода: 2016
Жанр: Фэнтези, драма, приключения, семейный
Режиссер: Джон Фавро
В ролях: Скарлетт Йоханссон, Идрис Эльба, Билл Мюррэй, Бен Кингсли, Кристофер Уокен, Джанкарло Эспозито, Лупита Нионго Эмджей, Энтони, Нил Сетхи, Брэндон Хеншель
О фильме:
Непримиримая борьба с опасным и внушающим страх тигром Шерханом вынуждает Маугли покинуть волчью стаю и отправиться в захватывающее путешествие. На пути мальчика ждут удивительные открытия и запоминающиеся встречи с пантерой Багирой, медведем Балу, питоном Каа и другими обитателями дремучих джунглей.

Страна: США
Студия: Walt Disney Pictures
Продолжительность: 01:45:55
Перевод: Профессиональный (полное дублирование)[BD CEE]
Файл
Качество: BDRip 1080p
Кодек: x264
Видео: AVC / 1920x1080p / 16:9 / 23,976 fps / 18,7 Мbps / 0.221 bit/pix
Аудио #1: Русский / AC3 / 48 KHz / 5.1 ch / 640 Kbps
Аудио 2: Украинский / DTS / 48 KHz / 5.1 ch / 1509 Kbps
Аудио 3: Английский / DTS / 48 KHz / 5.1 ch / 1509 Kbps
Аудио 4: Английский / AC3 / 48 KHz / 2.0 ch / 192 Kbps / Audio Commentary with Director Jon Favreau
Субтитры :
Вшитые (softsub):
#1 - Русские Форсированные (включены по умолчанию)
#2 - Русские iTunes
#3 - English iTunes
#4 - English
#5 - English SDH
#6 - English Commentary
Формат 3D: Half SideBySide / Горизонтальная анаморфная стереопара
Порядок ракурсов: левый ракурс первый
Семпл

Инфо-файл

Общее
Уникальный идентификатор : 213518477931416574225503496431089474248 (0xA0A229BC84AB4885840938900267DAC8)
Полное имя : D:TorrentsЗавершенныеThe.Jungle.Book.2016.1080p.3D.BluRay.Half-SBS.DTS.Rus.Ukr.2xEng.HDCLUB.mkv
Формат : Matroska
Версия формата : Version 2
Размер файла : 16,7 Гбайт
Продолжительность : 1 ч. 45 м.
Общий поток : 22,5 Мбит/сек
Название фильма : The Jungle Book (2016) [3D] - Release for HDCLUB
Дата кодирования : UTC 2016-08-27 09:44:18
Программа кодирования : mkvmerge v3.4.0 ('Rapunzel') built on May 15 2010 09:38:20
Библиотека кодирования : libebml v0.8.0 + libmatroska v0.9.0
Видео
Идентификатор : 1
Формат : AVC
Формат/Информация : Advanced Video Codec
Профиль формата : High@L4.1
Параметр CABAC формата : Да
Параметр ReFrames формата : 4 кадра
Идентификатор кодека : V_MPEG4/ISO/AVC
Продолжительность : 1 ч. 45 м.
Битрейт : 18,7 Мбит/сек
Ширина : 1920 пикселей
Высота : 1080 пикселей
Соотношение сторон : 16:9
Режим частоты кадров : Постоянный
Частота кадров : 23,976 (24000/1001) кадра/сек
Цветовое пространство : YUV
Субдискретизация насыщенности : 4:2:0
Битовая глубина : 8 бит
Тип развёртки : Прогрессивная
Бит/(Пиксели*Кадры) : 0.376
Размер потока : 13,5 Гбайт (81%)
Заголовок : The Jungle Book (2016) [3D] - Release for HDCLUB
Библиотека кодирования : x264 core 148 r2705 3f5ed56
Настройки программы : cabac=1 / ref=4 / deblock=1:-3:-3 / analyse=0x3:0x133 / me=umh / subme=11 / psy=1 / psy_rd=1.00:0.00 / mixed_ref=1 / me_range=32 / chroma_me=1 / trellis=2 / 8x8dct=1 / cqm=0 / deadzone=21,11 / fast_pskip=0 / chroma_qp_offset=-2 / threads=18 / lookahead_threads=3 / sliced_threads=0 / slices=4 / nr=0 / decimate=0 / interlaced=0 / bluray_compat=0 / constrained_intra=0 / bframes=8 / b_pyramid=2 / b_adapt=2 / b_bias=0 / direct=3 / weightb=1 / open_gop=0 / weightp=2 / keyint=250 / keyint_min=23 / scenecut=40 / intra_refresh=0 / rc_lookahead=40 / rc=2pass / mbtree=0 / bitrate=18700 / ratetol=1.0 / qcomp=0.65 / qpmin=0 / qpmax=51 / qpstep=4 / cplxblur=20.0 / qblur=0.5 / vbv_maxrate=62500 / vbv_bufsize=78125 / nal_hrd=none / filler=0 / ip_ratio=1.35 / pb_ratio=1.25 / aq=3:0.75 / zones=0,935,b=2/18479,23842,b=1.4/35048,38658,b=1.4/47041,49164,b=1.3/62368,69163,b=1.2/76931,81474,b=1.2/110801,134352,b=2
Язык : English
Default : Да
Forced : Нет
Аудио #1
Идентификатор : 2
Формат : AC-3
Формат/Информация : Audio Coding 3
Расширение режима : CM (complete main)
Параметр Endianness формата : Big
Идентификатор кодека : A_AC3
Продолжительность : 1 ч. 45 м.
Вид битрейта : Постоянный
Битрейт : 640 Кбит/сек
Каналы : 6 каналов
Расположение каналов : Front: L C R, Side: L R, LFE
Частота : 48,0 КГц
Частота кадров : 31,250 кадров/сек (1536 spf)
Метод сжатия : С потерями
Размер потока : 485 Мбайт (3%)
Заголовок : AC3 5.1 @ 640 kbps - DUB, Blu-ray CEE
Язык : Russian
Default : Да
Forced : Нет
Аудио #2
Идентификатор : 3
Формат : DTS
Формат/Информация : Digital Theater Systems
Режим : 16
Параметр Endianness формата : Big
Идентификатор кодека : A_DTS
Продолжительность : 1 ч. 45 м.
Вид битрейта : Постоянный
Битрейт : 1509 Кбит/сек
Каналы : 6 каналов
Расположение каналов : Front: L C R, Side: L R, LFE
Частота : 48,0 КГц
Частота кадров : 93,750 кадра/сек (512 spf)
Битовая глубина : 24 бит
Метод сжатия : С потерями
Размер потока : 1,12 Гбайт (7%)
Заголовок : DTS 5.1 @ 1536 kbps - DUB, Disney / Buena Vista
Язык : Ukrainian
Default : Нет
Forced : Нет
Аудио #3
Идентификатор : 4
Формат : DTS
Формат/Информация : Digital Theater Systems
Режим : 16
Параметр Endianness формата : Big
Идентификатор кодека : A_DTS
Продолжительность : 1 ч. 45 м.
Вид битрейта : Постоянный
Битрейт : 1509 Кбит/сек
Каналы : 6 каналов
Расположение каналов : Front: L C R, Side: L R, LFE
Частота : 48,0 КГц
Частота кадров : 93,750 кадра/сек (512 spf)
Битовая глубина : 24 бит
Метод сжатия : С потерями
Задержка видео : 11 мс.
Размер потока : 1,12 Гбайт (7%)
Заголовок : DTS 5.1 @ 1536 kbps
Язык : English
Default : Нет
Forced : Нет
Аудио #4
Идентификатор : 5
Формат : AC-3
Формат/Информация : Audio Coding 3
Расширение режима : CM (complete main)
Параметр Endianness формата : Big
Идентификатор кодека : A_AC3
Продолжительность : 1 ч. 45 м.
Вид битрейта : Постоянный
Битрейт : 192 Кбит/сек
Каналы : 2 канала
Расположение каналов : Front: L R
Частота : 48,0 КГц
Частота кадров : 31,250 кадров/сек (1536 spf)
Метод сжатия : С потерями
Размер потока : 145 Мбайт (1%)
Заголовок : AC3 2.0 @ 192 kbps - Audio Commentary with Director Jon Favreau
Язык : English
Default : Нет
Forced : Нет
Текст #1
Идентификатор : 6
Формат : UTF-8
Идентификатор кодека : S_TEXT/UTF8
Идентификатор кодека/Информация : UTF-8 Plain Text
Заголовок : Forced, iTunes
Язык : Russian
Default : Да
Forced : Нет
Текст #2
Идентификатор : 7
Формат : UTF-8
Идентификатор кодека : S_TEXT/UTF8
Идентификатор кодека/Информация : UTF-8 Plain Text
Заголовок : iTunes
Язык : Russian
Default : Нет
Forced : Нет
Текст #3
Идентификатор : 8
Формат : UTF-8
Идентификатор кодека : S_TEXT/UTF8
Идентификатор кодека/Информация : UTF-8 Plain Text
Заголовок : iTunes
Язык : English
Default : Нет
Forced : Нет
Текст #4
Идентификатор : 9
Формат : UTF-8
Идентификатор кодека : S_TEXT/UTF8
Идентификатор кодека/Информация : UTF-8 Plain Text
Язык : English
Default : Нет
Forced : Нет
Текст #5
Идентификатор : 10
Формат : UTF-8
Идентификатор кодека : S_TEXT/UTF8
Идентификатор кодека/Информация : UTF-8 Plain Text
Заголовок : SDH
Язык : English
Default : Нет
Forced : Нет
Текст #6
Идентификатор : 11
Формат : UTF-8
Идентификатор кодека : S_TEXT/UTF8
Идентификатор кодека/Информация : UTF-8 Plain Text
Заголовок : Commentary
Язык : English
Default : Нет
Forced : Нет
Меню
00:00:00.000 : en:Opening Title
00:00:48.214 : en:Running with Wolves
00:05:15.315 : en:Water Truce
00:09:02.458 : en:A Warning
00:12:42.178 : en:Mowgli Leaves the Pack
00:16:34.451 : en:Shere Khan Attacks
00:21:20.028 : en:Akela's Plea
00:27:15.133 : en:Kaa
00:35:04.143 : en:Baloo's Honey
00:43:21.724 : en:The Mowgli Way
00:48:05.132 : en:"The Bare Necessities"
00:53:29.247 : en:Saving the Elephant
00:58:03.271 : en:Monkey Abduction
01:05:46.442 : en:"I Wan'na Be Like You"
01:10:35.522 : en:Monkey Escape
01:17:01.325 : en:The Red Flower
01:20:48.927 : en:The Law of the Jungle
01:24:46.539 : en:The Final Battle
01:30:32.969 : en:Celebration
01:35:53.205 : en:End Credits

Скриншоты

Релиз от:

[Цитировать]



Показать сообщения:    

Текущее время: 08-Дек 17:13

Часовой пояс: UTC + 3


Вы не можете начинать темы
Вы не можете отвечать на сообщения
Вы не можете редактировать свои сообщения
Вы не можете удалять свои сообщения
Вы не можете голосовать в опросах
Вы не можете прикреплять файлы к сообщениям
Вы не можете скачивать файлы

!ВНИМАНИЕ!
Сайт не предоставляет электронные версии произведений, а занимается лишь коллекционированием и каталогизацией ссылок, присылаемых и публикуемых на форуме нашими читателями. Если вы являетесь правообладателем какого-либо представленного материала и не желаете, чтобы ссылка на него находилась в нашем каталоге, свяжитесь с нами, и мы незамедлительно удалим ее. Файлы для обмена на трекере предоставлены пользователями сайта, и администрация не несет ответственности за их содержание. Просьба не заливать файлы, защищенные авторскими правами, а также файлы нелегального содержания!