[ Сегодня идет свободное скачивание без начисления Download ]


Статистика раздачи
Нет
 
   
 
Top  
 
 
-Добро пожаловать в Лэйквью / Lakeview Terrace (2008) BDRip- Русское название: Добро пожаловать в Лэйквью
Оригинальное название: Lakeview Terrace
Страна: США
Год выпуска: 2008
Слоган: «Что может быть безопаснее, чем жить по соседству с полицейским?!»
Жанр: Боевик, Триллер, Драма--Режиссер: Нил ЛаБут
Актеры: Сэмюэл Л. Джексон (Abel Turner), Патрик Уилсон (Chris Mattson), Керри Вашингтон (Lisa Mattson), Рон Гласс (Harold Perreau), Джастин Чэмберс (Donnie Eaton), Джей Эрнандес (Javier Villareal), Реджин Нэи (Celia Turner), Джейшон Фишер (Marcus Turner), Роберт Пайн (Captain Wentworth), Кит Лонекер (Clarence Darlington), Калиб Пинкетт (Damon Richards), Роберт Дэйи (Jung Lee Pak)-Описание фильма: Молодая влюбленная пара наконец-то переезжает в дом своей мечты в пригороде Лос-Анджелеса: бассейн, кипарисы, теплый калифорнийский климат... Но, не успели они в нем обосноваться, как стали объектом открытой агрессии со стороны соседа - безжалостного черного копа, который не одобряет их межрасовый брак. После его предупреждения в доме молодоженов начинают происходить неприятности. И днем, и ночью они постоянно ощущают на себе пристальное внимание Тернера, который взял на себя полномочия сторожевого и дозорного пса, принадлежащей ему округи. Его ночной патруль приносит спокойствие всем, но становится все более изнуряющим для новичков. И это настойчивое и навязчивое вмешательство в их личную жизнь провоцирует семейную пару на ответные действия. Что они смогут противопоставить этому пристальному налитому злобой взгляду и "добродушной" улыбке на каменном лице?- -Продолжительность: 01:50:26
Перевод: Многоголосый закадровый
Субтитры: английские
Вид субтитров: вшитые отключаемые--Качество видео: BDRip
Видеокодек: MPEG-4 AVC/H.264
Битрейт видео: ~4384 kbps
Размер кадра: 1280x532
Аудио 1: Русский; AC3; 5.1; 48 kHz; 640 kbps
Аудио 2: Англ-ий; AC3; 5.1; 48 kHz; 640 kbps-

MediaInfo:

General
Unique ID : 234311854636310512689642166232823971332 (0xB046D25C09E34EB68C921C54EC5D3E04)
Complete name : G:\Lakeview Terrace.2008.BDRip.720p.mkv
Format : Matroska
Format version : Version 1
File size : 4.37 GiB
Duration : 1h 50mn
Overall bit rate : 5 668 Kbps
Encoded date : UTC 2009-04-08 19:25:23
Writing application : mkvmerge v2.6.0 ('Kelly watch the Stars') built on Mar 24 2009 15:23:17
Writing library : libebml v0.7.7 + libmatroska v0.8.1
Video
ID : 1
Format : AVC
Format/Info : Advanced Video Codec
Format profile : High@L4.1
Format settings, CABAC : Yes
Format settings, ReFrames : 12 frames
Codec ID : V_MPEG4/ISO/AVC
Duration : 1h 50mn
Bit rate : 4 384 Kbps
Width : 1 280 pixels
Height : 532 pixels
Display aspect ratio : 2.40:1
Frame rate : 23.976 fps
Color space : YUV
Chroma subsampling : 4:2:0
Bit depth : 8 bits
Scan type : Progressive
Bits/(Pixel*Frame) : 0.269
Stream size : 3.30 GiB (75%)
Writing library : x264 core 67 r1130M 8475977
Encoding settings : cabac=1 / ref=12 / deblock=1:-3:-3 / analyse=0x3:0x113 / me=umh / subme=9 / psy_rd=0.7:0.7 / mixed_ref=1 / me_range=32 / chroma_me=1 / trellis=2 / 8x8dct=1 / cqm=0 / deadzone=21,11 / chroma_qp_offset=-4 / threads=6 / nr=0 / decimate=1 / mbaff=0 / bframes=3 / b_pyramid=1 / b_adapt=2 / b_bias=0 / direct=3 / wpredb=1 / keyint=250 / keyint_min=25 / scenecut=40 / rc=2pass / bitrate=4384 / ratetol=1.0 / qcomp=0.60 / qpmin=10 / qpmax=51 / qpstep=4 / cplxblur=20.0 / qblur=0.5 / ip_ratio=1.40 / pb_ratio=1.30 / aq=1:0.80
Language : English
Default : Yes
Forced : No
Audio #1
ID : 2
Format : AC-3
Format/Info : Audio Coding 3
Mode extension : CM (complete main)
Format settings, Endianness : Big
Codec ID : A_AC3
Duration : 1h 50mn
Bit rate mode : Constant
Bit rate : 640 Kbps
Channel(s) : 6 channels
Channel positions : Front: L C R, Side: L R, LFE
Sampling rate : 48.0 KHz
Bit depth : 16 bits
Compression mode : Lossy
Stream size : 506 MiB (11%)
Title : AC3 5.1 640 kbps
Language : Russian
Default : Yes
Forced : No
Audio #2
ID : 3
Format : AC-3
Format/Info : Audio Coding 3
Mode extension : CM (complete main)
Format settings, Endianness : Big
Codec ID : A_AC3
Duration : 1h 50mn
Bit rate mode : Constant
Bit rate : 640 Kbps
Channel(s) : 6 channels
Channel positions : Front: L C R, Side: L R, LFE
Sampling rate : 48.0 KHz
Bit depth : 16 bits
Compression mode : Lossy
Stream size : 506 MiB (11%)
Title : AC3 5.1 640 kbps
Language : English
Default : No
Forced : No
Text
ID : 4
Format : UTF-8
Codec ID : S_TEXT/UTF8
Codec ID/Info : UTF-8 Plain Text
Language : English
Default : No
Forced : No

Знаете ли Вы, что...

  • Лэйквью - место, где в 1991 году группа белых полицейских избила чернокожего Родни Кинга. Избиение было написано на пленку и показано по телевидению, что послужило началом беспорядков на расовой почве.
-Скриншоты:
-Время раздачи: С 09:00 до 24:00

[Цитировать]



Показать сообщения:    

Текущее время: 09-Дек 06:59

Часовой пояс: UTC + 3


Вы не можете начинать темы
Вы не можете отвечать на сообщения
Вы не можете редактировать свои сообщения
Вы не можете удалять свои сообщения
Вы не можете голосовать в опросах
Вы не можете прикреплять файлы к сообщениям
Вы не можете скачивать файлы

!ВНИМАНИЕ!
Сайт не предоставляет электронные версии произведений, а занимается лишь коллекционированием и каталогизацией ссылок, присылаемых и публикуемых на форуме нашими читателями. Если вы являетесь правообладателем какого-либо представленного материала и не желаете, чтобы ссылка на него находилась в нашем каталоге, свяжитесь с нами, и мы незамедлительно удалим ее. Файлы для обмена на трекере предоставлены пользователями сайта, и администрация не несет ответственности за их содержание. Просьба не заливать файлы, защищенные авторскими правами, а также файлы нелегального содержания!