[ Сегодня идет свободное скачивание без начисления Download ]


Статистика раздачи
Нет
 
   
 
Top  
 
 
-Простые истины (1999-2003) DVB [Полные 350 серий]- Русское название: Простые истины
Год выпуска: 1999-2003
Жанр: Мелодрама, Комедия, Молодёжный телероман
Производство: Россия, "Синебридж"
Дата российской премьеры: 06.09.1999

Режиссер: Юрий Беленький, Вадим Шмелев
Актеры: Борис Невзоров, Татьяна Арнтгольц, Лидия Вележева, Алексей Гуськов, Артём Семакин, Анастасия Задорожная, Анна Исайкина, Анатолий Руденко, Эльвира Болгова, Алёна Ковальчук, Алексей Моисеев, Олег Макаров, Александр Андриенко, Ольга Старченкова, Евгений Косырев, Мила Липнер, Антонина Венидиктова, Нина Персиянинова, Михаил Полицеймако, Антон Колесников, Валерий Афанасьев, Николай Сахаров, Анна Гуляренко, Михаил Хабин, Олег Кассин, Юрий Мосейчук, Вячеслав Манучаров, Елена Мольченко, Наталья Чернявская, Виктор Низовой, Ольга Кузина, Ольга Битюцкая, Юрий Макеев, Юлия Трошина, Анна Цымбалистова, Александр Нестеров, Инна Аслиян, Анастасия Козлова, Михаил Беленький, Алексей Ильин, Марина Кучкова, Настя Стачинская, Вадим Утенков, Марина Черепухина, Никита Островский, Нина Лощинина, Вита Греьнёва, Александра Цымбалистова, Иван Похмелкин, Анастасия Панченко, Дмитрий Виноградов, Ирина Михалёва, Дмитрий Ермилов, Юлия Милана, Елена Захарова, сергей Тезов, Олег Зима. Владимир Борисов, Валерий Баринов, Андрей Невраев, Елена Романова, Ольга Дегтярёва, Александр Ильин мл., Владимир Надеин, Ольга Будина, Анна Воронова, Ольга Арнтгольц, Александр Шаврин, Михаил Солодко, Олег Соколов, Мария Горбань, Евгений Князев, Борис Клюев, Тутта Ларсен, Кирилл Канахин, Даниил Большов, Юрий Чурсин, Игорь Бужинский, марина Штода, Инна Аленикова, Александр Сериков, Ольга Погодина, Ирина Томская, Антон Храпов, Данила Козловский, Павел Сметанкин, Елена Мельникова, Анна Калашникова, Антон Морозов, Светлана Андропова, Марианна Кузнецова, Александр Скворцов, Александр Марченко
Описание фильма:
Мoлoдeжный тeлepoмaн o шкoльнoй жизни. Cитyaции, в кoтopыe пoпaдaют гepoи, знaкoмы кaждoмy пoдpocткy, a пpoблeмы, кoтopыe гepoи пытaютcя peшить, вoлнyют вcex: кaк бopoтьcя c бeзoтвeтнoй любoвью (и нaдo ли?), кaк paзpeшить кoнфликт c yчитeлями или oднoклaccникaми, кaк нaйти oбщий язык c poдитeлями, кaк пpoгyлять ypoк физкyльтypы, кaк, нaкoнeц, пoдтepeть двoйкy в днeвникe бeз пocлeдcтвий для шкoльнoй жизни.
Запись со спутникового канала: ИНТЕР+
Продолжительность: 350 х ~00:25
Качество видео: DVB
Видеокодек: MPEG-2
Битрейт видео: ~3500-4500 Kbps
Размер кадра: 704x576
Аудиокодек: MP2, stereo, 192 Kbps, 48.0 kHz

Дополнительно:

Сериал шёл в эфире с 6 сентября 1999 по 2003 год.
Сериал снимался в московской школе № 1240.
Было снято 350 серий.
Сериал показывали на телеканалах: РТР, Бибигон (Россия), Карусель (Россия), Новый канал, К2, ТЕТ, Интер+ (Украина) TV5 (Латвия).
Так как серии 1-56 снимались в 1999—2000 годах на них присутствует эффект зернистости и потеря цветовой гаммы.

MediaInfo

Общее
Полное имя : Простые истины (1-350 серии)\043 - Ушёл из дома и вернулся.mpg
Формат : MPEG-PS
Размер файла : 741 Мбайт
Продолжительность : 25 м.
Режим общего битрейта : Переменный
Общий поток : 3994 Кбит/сек
Библиотека кодирования : (c) 1998-2008 Womble Multimedia, Inc. / MPEG Video Wizard (08/2008) / Dec 31 2008
Видео
Идентификатор : 224 (0xE0)
Формат : MPEG Video
Версия формата : Version 2
Профиль формата : Main@Main
Параметр BVOP формата : Да
Параметр матрицы формата : Выборочная
Параметр GOP формата : Variable
Продолжительность : 25 м.
Вид битрейта : Переменный
Битрейт : 3723 Кбит/сек
Максимальный битрейт : 15,0 Мбит/сек
Ширина : 704 пикселя
Высота : 576 пикселей
Соотношение сторон : 4:3
Частота кадров : 25,000 кадров/сек
Стандарт вещания : PAL
Цветовое пространство : YUV
Субдискретизация насыщенности : 4:2:0
Битовая глубина : 8 бит
Тип развёртки : Чересстрочная
Порядок развёртки : Верхнее поле первое
Метод сжатия : С потерями
Бит/(Пиксели*Кадры) : 0.367
Размер потока : 691 Мбайт (93%)
Выравнивание : (c) 1998-2008 Womble Multimedia, Inc. / MPEG Video Wizard (08/2008) / Dec 31 2008
Заголовок : (c) 1998-2008 Womble Multimedia, Inc. / MPEG Video Wizard (08/2008) / Dec 31 2008
Библиотека кодирования : (c) 1998-2008 Womble Multimedia, Inc. / MPEG Video Wizard (08/2008) / Dec 31 2008
Аудио
Идентификатор : 192 (0xC0)
Формат : MPEG Audio
Версия формата : Version 1
Профиль формата : Layer 2
Продолжительность : 25 м.
Вид битрейта : Постоянный
Битрейт : 192 Кбит/сек
Каналы : 2 канала
Частота : 48,0 КГц
Метод сжатия : С потерями
Задержка видео : -80 мс.
Размер потока : 35,6 Мбайт (5%)
Скриншоты:



Время раздачи: с 23:00 до 9:00 (в остальное время по возможности)

[Цитировать]



Показать сообщения:    

Текущее время: 11-Дек 14:53

Часовой пояс: UTC + 3


Вы не можете начинать темы
Вы не можете отвечать на сообщения
Вы не можете редактировать свои сообщения
Вы не можете удалять свои сообщения
Вы не можете голосовать в опросах
Вы не можете прикреплять файлы к сообщениям
Вы не можете скачивать файлы

!ВНИМАНИЕ!
Сайт не предоставляет электронные версии произведений, а занимается лишь коллекционированием и каталогизацией ссылок, присылаемых и публикуемых на форуме нашими читателями. Если вы являетесь правообладателем какого-либо представленного материала и не желаете, чтобы ссылка на него находилась в нашем каталоге, свяжитесь с нами, и мы незамедлительно удалим ее. Файлы для обмена на трекере предоставлены пользователями сайта, и администрация не несет ответственности за их содержание. Просьба не заливать файлы, защищенные авторскими правами, а также файлы нелегального содержания!