[ Сегодня идет свободное скачивание без начисления Download ]


Статистика раздачи
Нет
 
   
 
Top  
 
 
-Али / Ali (2001) BDRip-«Ты уверен, что всё знаешь о нем!..»- Русское название: Али
Оригинальное название: Ali
Год выпуска: 2001
Жанр: Драма, Биография, Спорт
Описание фильма:
Непобедимый боксер Мохаммед Али является великим героем Америки, кумиром всего мира, и в то же время, одной из самых недооцененных персон XX века. Борясь за гражданские права в родной стране в сложные, бурные годы, когда громкие политические и социальные события коренным образом меняли мировоззрения людей, Али защищал угнетенных и дарил людям новую надежду. История сделала его живой легендой, и теперь вряд ли найдется на планете хоть один человек, который не слышал гордое имя Али.-Режиссер: Майкл Манн
Актеры: Уилл Смит, Джейми Фокс, Джон Войт, Марио Ван, Пиблз, Рон Сильвер, Джеффри Райт, Майкелти Уильямсон, Джада Пинкетт Смит, Нона Гэй, Майкл Мишель
Роли дублировали: Юрий Брежнев, Вадим Андреев, Александр Новиков, Владимир Антоник, Александр Груздев
Продолжительность: 02:36:32
Перевод: Дублированный- -Дата мировой премьеры: 11 декабря 2001
Дата российской премьеры: 4 апреля 2002, «Пирамида», «Парадиз»
Дата выхода DVD релиза: 11 ноября 2008, «Парадиз Медиа»
Видеокодек: MPEG-4 AVC/H.264
Битрейт видео: ~12,6 Мбит/сек
Размер кадра: 1920x1080
Качество видео: BDRip / За исходник спасибо:
Аудио №1: AC3 5.1, 448 kbps - Русский
Аудио №2: AC3 5.1, 640 kbps - Английский-

Media info:

Общее
Уникальный идентификатор : 188790452925658421924061508388789987008 (0x8E07B7F978E9AB4EB12EA5742498A6C0)
Полное имя : H:\my films\ALI_3D.mkv
Формат : Matroska
Версия формата : Version 4 / Version 2
Размер файла : 15,2 Гбайт
Продолжительность : 2 ч. 36 м.
Общий поток : 13,9 Мбит/сек
Название фильма : ALI_3D_crop_over/under
Дата кодирования : UTC 2013-01-31 00:18:51
Программа кодирования : mkvmerge v6.0.0 ('Coming Up For Air') built on Jan 20 2013 09:52:00
Библиотека кодирования : libebml v1.3.0 + libmatroska v1.4.0
Видео
Идентификатор : 1
Формат : AVC
Формат/Информация : Advanced Video Codec
Профиль формата : [email protected]
Параметр CABAC формата : Да
Параметр ReFrames формата : 4 кадра
Параметр GOP формата : M=5, N=12
Идентификатор кодека : V_MPEG4/ISO/AVC
Продолжительность : 2 ч. 36 м.
Битрейт : 12,6 Мбит/сек
Ширина : 1920 пикселей
Высота : 1080 пикселей
Соотношение сторон : 16:9
Режим частоты кадров : Постоянный
Частота кадров : 23,976 кадра/сек
Цветовое пространство : YUV
Субдискретизация насыщенности : 4:2:0
Битовая глубина : 8 бит
Тип развёртки : Прогрессивная
Бит/(Пиксели*Кадры) : 0.253
Размер потока : 13,7 Гбайт (90%)
Заголовок : rip by I/N
Библиотека кодирования : x264 core 128 r2216M 198a7ea
Настройки программы : cabac=1 / ref=4 / deblock=1:-3:-3 / analyse=0x3:0x133 / me=umh / subme=7 / psy=1 / psy_rd=1.00:0.10 / mixed_ref=1 / me_range=32 / chroma_me=1 / trellis=2 / 8x8dct=1 / cqm=1 / deadzone=21,11 / fast_pskip=1 / chroma_qp_offset=-3 / threads=4 / lookahead_threads=1 / sliced_threads=0 / nr=0 / decimate=1 / interlaced=0 / bluray_compat=0 / constrained_intra=0 / bframes=4 / b_pyramid=2 / b_adapt=2 / b_bias=0 / direct=2 / weightb=1 / open_gop=0 / weightp=2 / keyint=12 / keyint_min=2 / scenecut=60 / intra_refresh=0 / rc_lookahead=17 / rc=crf / mbtree=1 / crf=16.0 / qcomp=0.60 / qpmin=10 / qpmax=60 / qpstep=6 / vbv_maxrate=40000 / vbv_bufsize=30000 / crf_max=30.0 / nal_hrd=none / ip_ratio=1.40 / aq=1:0.70
Default : Да
Forced : Нет
Аудио #1
Идентификатор : 2
Формат : AC-3
Формат/Информация : Audio Coding 3
Расширение режима : CM (complete main)
Параметр Endianness формата : Big
Идентификатор кодека : A_AC3
Продолжительность : 2 ч. 36 м.
Вид битрейта : Постоянный
Битрейт : 448 Кбит/сек
Каналы : 6 каналов
Расположение каналов : Front: L C R, Side: L R, LFE
Частота : 48,0 КГц
Битовая глубина : 16 бит
Метод сжатия : С потерями
Размер потока : 502 Мбайт (3%)
Язык : Russian
Default : Да
Forced : Нет
Аудио #2
Идентификатор : 3
Формат : AC-3
Формат/Информация : Audio Coding 3
Расширение режима : CM (complete main)
Параметр Endianness формата : Big
Идентификатор кодека : A_AC3
Продолжительность : 2 ч. 36 м.
Вид битрейта : Постоянный
Битрейт : 640 Кбит/сек
Каналы : 6 каналов
Расположение каналов : Front: L C R, Side: L R, LFE
Частота : 48,0 КГц
Битовая глубина : 16 бит
Метод сжатия : С потерями
Размер потока : 717 Мбайт (5%)
Язык : English
Default : Нет
Forced : Нет
Меню
00:00:00.000 : en:(01)00:00:00:000
00:15:14.830 : en:(02)00:15:14:830
00:27:02.037 : en:(03)00:27:02:037
00:28:41.511 : en:(04)00:28:41:511
00:32:43.002 : en:(05)00:32:43:002
00:37:17.985 : en:(06)00:37:17:985
00:41:10.843 : en:(07)00:41:10:843
00:48:21.648 : en:(08)00:48:21:648
00:51:40.514 : en:(09)00:51:40:514
00:55:16.896 : en:(10)00:55:16:896
01:01:15.922 : en:(11)01:01:15:922
01:03:33.184 : en:(12)01:03:33:184
01:09:52.897 : en:(13)01:09:52:897
01:11:25.114 : en:(14)01:11:25:114
01:12:54.370 : en:(15)01:12:54:370
01:14:57.201 : en:(16)01:14:57:201
01:29:05.673 : en:(17)01:29:05:673
01:31:24.562 : en:(18)01:31:24:562
01:34:56.982 : en:(19)01:34:56:982
01:39:23.123 : en:(20)01:39:23:123
01:41:21.909 : en:(21)01:41:21:909
01:46:48.527 : en:(22)01:46:48:527
01:47:43.248 : en:(23)01:47:43:248
01:50:15.233 : en:(24)01:50:15:233
01:59:45.052 : en:(25)01:59:45:052
02:04:30.754 : en:(26)02:04:30:754
02:15:15.941 : en:(27)02:15:15:941
02:26:11.220 : en:(28)02:26:11:220
Скриншоты:

Особенности релиза:

Справа и слева у видеоряда обрезано по 238р, что дает возможность просмотра на полный экран (без черных полос) на телевизорах с соотношением сторон 16:9 без изменения пропорций. На мой взгляд плюсы данных рипов- это более глубокое восприятие 3D-эффектов (конечно там где они есть) К минусам отнесу- вынужденное обрезание кадра по бокам. Так-что господа- выбор за вами! Всем приятного просмотра!
Проверено на встроенном плейере ТВ Samsung-D6500Время раздачи: 24/7 - круглосуточно до 15 скачавших

[Цитировать]



Показать сообщения:    

Текущее время: 05-Дек 11:25

Часовой пояс: UTC + 3


Вы не можете начинать темы
Вы не можете отвечать на сообщения
Вы не можете редактировать свои сообщения
Вы не можете удалять свои сообщения
Вы не можете голосовать в опросах
Вы не можете прикреплять файлы к сообщениям
Вы не можете скачивать файлы

!ВНИМАНИЕ!
Сайт не предоставляет электронные версии произведений, а занимается лишь коллекционированием и каталогизацией ссылок, присылаемых и публикуемых на форуме нашими читателями. Если вы являетесь правообладателем какого-либо представленного материала и не желаете, чтобы ссылка на него находилась в нашем каталоге, свяжитесь с нами, и мы незамедлительно удалим ее. Файлы для обмена на трекере предоставлены пользователями сайта, и администрация не несет ответственности за их содержание. Просьба не заливать файлы, защищенные авторскими правами, а также файлы нелегального содержания!