[ Сегодня идет свободное скачивание без начисления Download ]


Статистика раздачи
Нет
 
   
 
Top  
 
 
-Право на правду [32 серии из 32] (2012) SATRip- Русское название: Право на правду
Выпущено: Россия, ПЦ "Пирамида"
Год выпуска: 2012
Жанр: Детектив, Криминальный фильм
Перевод: Не требуется (Русский)

Режиссер: Николай Барышников
Актеры: Елена Ксенофонтова, Борис Хвошнянский, Илья Исаев, Сергей Никоненко, Артур Ваха, Артем Осипов, Дарья Лузина, Ольга Торощина, Марина Коняшкина, Евгений Косырев, Денис Варенов, Александр Никольский (II), Евгения Чиркова, Алексей Кирсанов, Надежда Исайкина, Андрей Курилов, Анастасия Сапожникова, Дмитрий Собачкин, Николай Цонку, Владимир Ширяев (II), Дмитрий Рябов, Альбина Скобелева, Полина Ганшина, Всеволод Яшкин, Наталья Тетенова, Александра Булычёва, Надежда Егорова, Ольга Моховая, Виктор Конухин, Александр Пугачев (II), Олег Масленников (II), Александр Касаткин (II), Дмитрий Воронин, Владимир Гараев, Валентина Кошкина, Игорь Поселенов, Оксана Тимановская, Елена Медведева, Андрей Москвичев, Елена Коллегова, Геннадий Семёнов, Александр Берлин (II), Антон Никитин, Владислав Шкляев
Описание фильма:
При Следственном комитете Москвы создается специальный отдел, который должен заниматься расследованием случаев жестокого обращения. В компетенцию отдела входят расследования случаев физического и морального насилия в государственных учреждениях, вопиющие случаи несоблюдения прав человека, связанные с пытками и насилием, невыполнение служебных обязанностей органами следствия, жестокое обращение с детьми, женщинами, стариками. Курирующий этот спецотдел московский обмудсмен Сергей Прохоров выбирает на должность начальника судью Ольгу Байкову, отличающуюся независимым характером. Прохоров обещает Байковой, что отдел она сформирует сама. Ольга приступает к своим обязанностям. Первый человек, которого она предлагает в качестве эксперта, известный судебный психиатр Павел Митрохин. Оперативников выбирает тоже Ольга. Это ее ученики - неразлучная парочка, именуемая «волки и овцы». Вечные соперники и пикировщики Саша Волков и Ангелина Овечкина. Если Саша умен, душевно тонок, интеллигентен, то – Ангелина считается «инфан террибле», при этом – Саша внешне похож на демона, а Ангелина – просто ангел с картины Ботичелли. Байкова вынуждена согласиться на «человека от руководства». Это следователь Игорь Аржановский. Застегнутый на все пуговицы, исполнительный, умный, непробиваемо спокойный, но – резко выпадающий из «обоймы». Ольга считает его конформистом, Митрохин – заурядным карьеристом. Последним сотрудником отдела становится Егор Сумароков – «компьютерный гений без образования». Итак, отдел набран. Прохоров объясняет им всю сложность их работы. К ним будут попадать самые вопиющие факты нарушения прав человека, связанные с физическим и моральным насилием. Естественно, им часто будут противостоять, будет и противодействие со стороны силовых структур. Они должны помнить, те, кто проявляет бессмысленную жестокость, надеются на свою безнаказанность. И сегодня их надежды чаще всего сбываются. Спецотдел должен положить этому конец.
Продолжительность: 32 х ~ 00:43:46 серия
Качество видео: SATRip
Релиз-группа:
Видеокодек: Xvid
Битрейт видео: ~1265 Kbit/s
Размер кадра: 720 x 400
Аудиокодек: MP3, 2.0
Битрейт аудио: 128 Kbit/s

MediaInfo

Общее
Полное имя : D:\Торренты\ФИЛЬМЫ торента\Право на правду.2012.SATRip\Право на правду.01.2012.SATRip.avi
Формат : AVI
Формат/Информация : Audio Video Interleave
Профиль формата : OpenDML
Настройки формата : rec
Размер файла : 439 Мбайт
Продолжительность : 43 м.
Общий поток : 1402 Кбит/сек
Видео
Идентификатор : 0
Формат : MPEG-4 Visual
Профиль формата : Advanced Simple@L5
Параметр BVOP формата : 3
Параметр QPel формата : Нет
Параметр GMC формата : Без точки перехода
Параметр матрицы формата : Default (MPEG)
Идентификатор кодека : XVID
Идентификатор кодека/Подсказка : XviD
Продолжительность : 43 м.
Битрейт : 1265 Кбит/сек
Ширина : 720 пикс.
Высота : 400 пикс.
Соотношение сторон : 16:9
Частота кадров : 25,000 кадр/сек
Цветовое пространство : YUV
Подвыборка цветности : 4:2:0
Битовая глубина : 8 бит
Тип развёртки : Прогрессивная
Метод сжатия : С потерями
Бит/(Пиксели*Кадры) : 0.176
Размер потока : 396 Мбайт (90%)
Библиотека кодирования : XviD 64
Аудио
Идентификатор : 1
Формат : MPEG Audio
Версия формата : Version 1
Профиль формата : Layer 3
Режим : Joint stereo
Расширение режима : MS Stereo
Идентификатор кодека : 55
Идентификатор кодека/Подсказка : MP3
Продолжительность : 43 м.
Вид битрейта : Постоянный
Битрейт : 128 Кбит/сек
Каналы : 2 канала
Частота : 48,0 КГц
Метод сжатия : С потерями
Размер потока : 40,1 Мбайт (9%)
Выравнивание : Соединение по промежуткам
Продолжительность промежутка : 24 мс. (0,60 видеокадр)
Время предзагрузки промежутка : 192 ms
Библиотека кодирования : LAME3.90.3ЄЄЄЄЄЄЄЄЄЄ
Скриншоты:
Право на правду (2012) DVB [Обновляемая]Время раздачи: 24/7 по возможности

[Цитировать]



Показать сообщения:    

Текущее время: 09-Дек 16:36

Часовой пояс: UTC + 3


Вы не можете начинать темы
Вы не можете отвечать на сообщения
Вы не можете редактировать свои сообщения
Вы не можете удалять свои сообщения
Вы не можете голосовать в опросах
Вы не можете прикреплять файлы к сообщениям
Вы не можете скачивать файлы

!ВНИМАНИЕ!
Сайт не предоставляет электронные версии произведений, а занимается лишь коллекционированием и каталогизацией ссылок, присылаемых и публикуемых на форуме нашими читателями. Если вы являетесь правообладателем какого-либо представленного материала и не желаете, чтобы ссылка на него находилась в нашем каталоге, свяжитесь с нами, и мы незамедлительно удалим ее. Файлы для обмена на трекере предоставлены пользователями сайта, и администрация не несет ответственности за их содержание. Просьба не заливать файлы, защищенные авторскими правами, а также файлы нелегального содержания!