[ Сегодня идет свободное скачивание без начисления Download ]


Статистика раздачи
Качаю: [ 1 ]
Скачал: [ 4 ]
 
   
 
Top  
 
 
Alex24369 | Боевая машина Linux (2013) PCRec - Автор (режиссер): Alex24369
Жанр: Компьютерная безопасность
Описание:
Боевая машина Linux — Курс по локальной / сетевой / финансовой анонимности и безопасности
Подробный курс для обеспечения безопасности и анонимности в сети. Для любого уровня знаний. Приложены текстовые файлы, видео, скрины с примерами.

Вы научитесь:

- Ставить пароль/шифровать
— bios -> жесткий диск-> домашняя директория
блокировка через 5 минут бездействия-> криптоконтейнеры с
двойным дном -> устанавливать во внутрь виртуальные машины
— Устанавливать windows/Xubuntu
— Пользоваться terminala и репозитариев, установить софт первой необходимости и
настроить его на максимальную анонимность и безопасность
— Настраивать Kubuntu на максимальную производительность и скорость
— Делать закриптованые backup на съёмный носитель
— Пользоваться бесплатно, растягивать облако и расскажу что там хранить
— Пользоваться firewall
— Пользоваться каналами связи (при выполнении некоторых условий, являются безопасными)
— Пользоваться анонимно и удобно почтовыми клиентами
— Устанавливать OpenVPN + как найти абузоустойчивый не дорогой сервис который не выдаст Вас (проверенно на собственном опыте)
— Узнаете как, где и в каком виде хранить пароли сертификаты и важную информацию, что бы иметь доступ с любой точки планеты
— Пользоваться i2p и как он способен облегчить нам жизнь
— Пользоваться bitcoin и не терять, а даже быть в плюсе при колебании курса
Вы узнаете:
— Зачем и как откатывать виртуальную машину
— Как настроить firefox на максимальную анонимность
— Объясню как правильно настроить proxifaer с dns
— Как за 3 секунды пустить весь трафик через tor или любой другой socks
— Какими платежками и как пользоваться!
— Вебмани, яндекс деньги,qiwi — при запросе органов информации по этим системам, они им дают полный отчет: место жительства, номер телефона, паспортные даные, характеристики железа...
— Как, где, за сколько, у кого приобрести карту на "невашеимя"!
— Основные подводные камни, правила техники безопасности при покупке и использовании карты на дропа
— Как работает COMP2 отдел К , оперуполномоченный
Предоставлю софт
Платный, труднодоступный в паблике софт для смены значения железа, mac адреса, проксификации, безвозвратного удаления данных. Предустановленных сборок меседжеров — которые с помощью шифрования gpg otp — исключат снифинг вашей переписки
Для кого подойдет:
— Для людей интересующих вопросы безопасности и анонимности — в независимости от того кто Вы – начинающий виндузятник или бывалый кар#ер. Вы найдете для себя интересные моменты
— Для людей который ради своей анонимности и безопасности готовы попрощаться с windows и перейти на Linux
— Для интересующих вопросы финансовой анонимности
— Для общего развития
Для кого не подойдет:
— Для безразличных людей к этому вопросу
— Для тех у кого руки под *уй заточены
Недостатки курса и обучения в целом:
— Курс не являеться сочинением по русскому языку! Тот кто ищет орфографию смею разочаровать тут ее не будет! Рерайтера я не нанимал( не хочу тратить на это Ваши деньги)
— Удобства и безопасность это две стороны одной медали! Не все предложенные варианты будут супермегаудобными,
но они будут на столько удобными на сколько это возможно.
— Думать прийдеться больше! Человек, когда обучается новому, всегда сталкивается с "с временно нерешенными задачами", поэтому нужно будет немного терпения и времени.
Продолжительность: 01:19:40
Качество видео: PCRec
Видео: Xvid, 1280x720,1920x1072, ~779 Kbps
Аудио: PCM, 2 ch, 1 536 Kbps, CBR

Mediainfo:

General
Complete name : 1.avi
Format : AVI
Format/Info : Audio Video Interleave
File size : 38.2 MiB
Duration : 2mn 8s
Overall bit rate : 2 488 Kbps
TCOD : 0
TCDO : 1287119166
Video
ID : 0
Format : MPEG-4 Visual
Format profile : Advanced [email protected]
Format settings, BVOP : 2
Format settings, QPel : No
Format settings, GMC : No warppoints
Format settings, Matrix : Default (H.263)
Muxing mode : Packed bitstream
Codec ID : XVID
Codec ID/Hint : XviD
Duration : 2mn 8s
Bit rate : 779 Kbps
Width : 1 280 pixels
Height : 720 pixels
Display aspect ratio : 16:9
Frame rate : 59.940 (60000/1001) fps
Color space : YUV
Chroma subsampling : 4:2:0
Bit depth : 8 bits
Scan type : Progressive
Compression mode : Lossy
Bits/(Pixel*Frame) : 0.014
Stream size : 12.0 MiB (31%)
Writing library : XviD 58
Audio
ID : 1
Format : PCM
Format settings, Endianness : Little
Format settings, Sign : Signed
Codec ID : 1
Duration : 2mn 8s
Bit rate mode : Constant
Bit rate : 1 536 Kbps
Channel(s) : 2 channels
Sampling rate : 48.0 KHz
Bit depth : 16 bits
Stream size : 23.6 MiB (62%)
Alignment : Aligned on interleaves
Interleave, duration : 250 ms (14.98 video frames)
Interleave, preload duration : 250 ms
Скриншоты:

Дополнительные скриншоты:

[Цитировать]



Показать сообщения:    

Текущее время: 06-Дек 20:53

Часовой пояс: UTC + 3


Вы не можете начинать темы
Вы не можете отвечать на сообщения
Вы не можете редактировать свои сообщения
Вы не можете удалять свои сообщения
Вы не можете голосовать в опросах
Вы не можете прикреплять файлы к сообщениям
Вы не можете скачивать файлы

!ВНИМАНИЕ!
Сайт не предоставляет электронные версии произведений, а занимается лишь коллекционированием и каталогизацией ссылок, присылаемых и публикуемых на форуме нашими читателями. Если вы являетесь правообладателем какого-либо представленного материала и не желаете, чтобы ссылка на него находилась в нашем каталоге, свяжитесь с нами, и мы незамедлительно удалим ее. Файлы для обмена на трекере предоставлены пользователями сайта, и администрация не несет ответственности за их содержание. Просьба не заливать файлы, защищенные авторскими правами, а также файлы нелегального содержания!