[ Сегодня идет свободное скачивание без начисления Download ]


Статистика раздачи
Нет
 
   
 
Top  
 
 
Заклятие 2 / The Conjuring 2 (2016) BDRip 720p Информация о фильме
Название: Заклятие 2
Оригинальное название: The Conjuring 2
Год выхода: 2016
Жанр: Ужасы
Режиссер: Джеймс Ван
В ролях: Патрик Уилсон, Вера Фармига, Мэдисон Вульф, Фрэнсис О’Коннор, Лорен Эспозито, Саймон МакБерни, Мария Дойл Кеннеди, Саймон Делани
О фильме:
Супругов занесло в город Энфильд. На этот раз экстрасенсам довелось столкнуться с могущественным демоном, претендующим на звание владыки здешних мест. Скептически настроенные горожане начали подозревать друг друга в происшествиях, в их сердцах поселилась вражда и ненависть.

Страна: США
Студия: Atomic Monster, Evergreen Media, New Line Cinema
Продолжительность: 02:13:40
Перевод: Дублированный | iTunes
Файл
Кодек: MPEG-4
Качество: BDRip 720p
Видео: 1280x534, 6566 Kbit/s, 23.976 fps
Звук:
Аудио #01: 48 kHz, AC3, 5.1, 384 Kbps | Дублированный, iTunes |
Аудио #02: 48 kHz, AC3, 5.1, 640 kbps | Оригинал |
Субтитры: Английские

MI

General
Unique ID : 234347509833351986396868774017246783749 (0xB04DB04BE514C5C8BC1F814DEA056905)
Complete name : G:VideoThe.Conjuring.2.2016.BDRip.720p.ExKinoRay.mkv
Format : Matroska
Format version : Version 4 / Version 2
File size : 7.10 GiB
Duration : 2 h 13 min
Overall bit rate : 7 593 kb/s
Movie name : The.Conjuring.2.2016.BDRip.720p.ExKinoRay
Encoded date : UTC 2016-08-30 20:17:32
Writing application : mkvmerge v8.3.0 ('Over the Horizon') 64bit
Writing library : libebml v1.3.1 + libmatroska v1.4.2
Video
ID : 1
Format : AVC
Format/Info : Advanced Video Codec
Format profile : High@L4.1
Format settings, CABAC : Yes
Format settings, ReFrames : 12 frames
Codec ID : V_MPEG4/ISO/AVC
Duration : 2 h 13 min
Bit rate : 6 566 kb/s
Width : 1 280 pixels
Height : 534 pixels
Display aspect ratio : 2.40:1
Frame rate mode : Constant
Frame rate : 23.976 (24000/1001) FPS
Color space : YUV
Chroma subsampling : 4:2:0
Bit depth : 8 bits
Scan type : Progressive
Bits/(Pixel*Frame) : 0.401
Stream size : 6.14 GiB (86%)
Writing library : x264 core 148 r2705kMod 3f5ed56
Encoding settings : cabac=1 / ref=12 / deblock=1:-3:-3 / analyse=0x3:0x133 / me=umh / subme=10 / psy=1 / fade_compensate=0.00 / psy_rd=1.15:0.00 / mixed_ref=1 / me_range=24 / chroma_me=1 / trellis=2 / 8x8dct=1 / cqm=0 / deadzone=21,11 / fast_pskip=0 / chroma_qp_offset=-2 / threads=17 / lookahead_threads=2 / sliced_threads=0 / nr=0 / decimate=0 / interlaced=0 / bluray_compat=0 / constrained_intra=0 / fgo=0 / bframes=9 / b_pyramid=2 / b_adapt=2 / b_bias=0 / direct=3 / weightb=1 / open_gop=0 / weightp=2 / keyint=250 / keyint_min=23 / scenecut=40 / intra_refresh=0 / rc_lookahead=60 / rc=crf / mbtree=0 / crf=16.5000 / qcomp=0.60 / qpmin=0 / qpmax=69 / qpstep=4 / vbv_maxrate=62500 / vbv_bufsize=78125 / crf_max=0.0 / nal_hrd=none / filler=0 / ip_ratio=1.30 / pb_ratio=1.20 / aq=3:0.75
Language : English
Default : Yes
Forced : No
Color range : Limited
Matrix coefficients : BT.709
Audio #1
ID : 2
Format : AC-3
Format/Info : Audio Coding 3
Mode extension : CM (complete main)
Format settings, Endianness : Big
Codec ID : A_AC3
Duration : 2 h 13 min
Bit rate mode : Constant
Bit rate : 384 kb/s
Channel(s) : 6 channels
Channel positions : Front: L C R, Side: L R, LFE
Sampling rate : 48.0 kHz
Frame rate : 31.250 FPS (1536 spf)
Compression mode : Lossy
Delay relative to video : 928 ms
Stream size : 368 MiB (5%)
Title : iTunes
Language : Russian
Default : Yes
Forced : No
Audio #2
ID : 3
Format : AC-3
Format/Info : Audio Coding 3
Mode extension : CM (complete main)
Format settings, Endianness : Big
Codec ID : A_AC3
Duration : 2 h 13 min
Bit rate mode : Constant
Bit rate : 640 kb/s
Channel(s) : 6 channels
Channel positions : Front: L C R, Side: L R, LFE
Sampling rate : 48.0 kHz
Frame rate : 31.250 FPS (1536 spf)
Compression mode : Lossy
Stream size : 613 MiB (8%)
Title : Original
Language : English
Default : No
Forced : No
Text #1
ID : 4
Format : UTF-8
Codec ID : S_TEXT/UTF8
Codec ID/Info : UTF-8 Plain Text
Duration : 2 h 13 min
Bit rate : 42 b/s
Count of elements : 1387
Stream size : 41.1 KiB (0%)
Title : Full
Language : English
Default : No
Forced : No
Text #2
ID : 5
Format : UTF-8
Codec ID : S_TEXT/UTF8
Codec ID/Info : UTF-8 Plain Text
Duration : 2 h 13 min
Bit rate : 50 b/s
Count of elements : 1743
Stream size : 49.0 KiB (0%)
Title : SDH
Language : English
Default : No
Forced : No
Menu
00:00:00.000 : en:00:00:00.000
00:08:24.671 : en:00:08:24.671
00:18:40.703 : en:00:18:40.703
00:28:34.212 : en:00:28:34.212
00:40:01.399 : en:00:40:01.399
00:48:46.841 : en:00:48:46.841
01:02:14.314 : en:01:02:14.314
01:09:29.665 : en:01:09:29.665
01:21:55.869 : en:01:21:55.869
01:29:26.486 : en:01:29:26.486
01:38:53.469 : en:01:38:53.469
01:48:15.364 : en:01:48:15.364
02:03:10.508 : en:02:03:10.508
02:07:36.816 : en:02:07:36.816

Скриншоты

[Цитировать]



Показать сообщения:    

Текущее время: 07-Дек 23:17

Часовой пояс: UTC + 3


Вы не можете начинать темы
Вы не можете отвечать на сообщения
Вы не можете редактировать свои сообщения
Вы не можете удалять свои сообщения
Вы не можете голосовать в опросах
Вы не можете прикреплять файлы к сообщениям
Вы не можете скачивать файлы

!ВНИМАНИЕ!
Сайт не предоставляет электронные версии произведений, а занимается лишь коллекционированием и каталогизацией ссылок, присылаемых и публикуемых на форуме нашими читателями. Если вы являетесь правообладателем какого-либо представленного материала и не желаете, чтобы ссылка на него находилась в нашем каталоге, свяжитесь с нами, и мы незамедлительно удалим ее. Файлы для обмена на трекере предоставлены пользователями сайта, и администрация не несет ответственности за их содержание. Просьба не заливать файлы, защищенные авторскими правами, а также файлы нелегального содержания!