[ Сегодня идет свободное скачивание без начисления Download ]


Статистика раздачи
Нет
 
   
 
Top  
 
 
Кандидат / Kandidaten / The Candidate (2008) Производство: Дания, Miso Film
Жанр: Триллер
Продолжительность: 01:34:51
Перевод: Авторский (одноголосый, закадровый) А.Карповский, любительский (одноголосый, закадровый) Rider
Субтитроы: Русские, английские, датские
Режиссер: Каспер Барфоэд
Актеры: Николай Ли Каас, Ульф Пилгаард, Лаура Кристенсен, Тува Новотны, Давид Денсик, Ким Бодния, Хеннинг Енсен, Йеспер Лангберг, Биргитта Йорт Сёренсен, Хеннинг Валин Якобсен
Описание:
Фильм про респектабельного молодого датского адвоката Йонаса (Николай Ли Каас), который практически не проигрывает процессы на суде. Всё в его жизни хорошо: у него престижная работа, прекрасный отец, достойная девушка, с которой он обручен.... и вдруг, что -то ломается в его жизни. Сначала внезапно погибает отец, потом в тартарары летит социальный успех, а вчерашняя невеста уже не находит с главным героем взаимопонимания. Да ко всему ещё внезапно Йонас оказывается вовлеченным в череду странных обстоятельств: нечаянно он становится убийцей и подвергается шантажу со стороны неизвестных и очень коварных людей. Борьба с тенями - самая тяжелая борьба, она сродни борьбе с самим собой. И герой вступает в эту схватку, он не бежит от ужаса происходящего, как ему советует один из фигурантов дела, связанного с убийством его отца. Напротив, весь фильм Йонас пытается настигнуть этот ужас, и подавить его. Смекалка адвоката, хорошие спортивные данные, чёткость быстрого анализа событий, внимательность к деталям, помогают ему в этом. У фильма достойный финал.

Качество видео: BDRip-AVC
Видео: AVC, 1024x434 (2.35:1), 25.000 fps, 2 663 Kbps (0.240 bit/pixel)
Аудио #1: AC-3, 48.0 KHz, 6 ch, 448 Kbps, CBR (Russian) - А.Карповский
Аудио #2: AC-3, 48.0 KHz, 2 ch, 192 Kbps, CBR (Russian) - Rider

Mediainfo:

Формат : Matroska
Версия формата : Version 2
Размер файла : 2,19 Гбайт
Продолжительность : 1 ч. 34 м.
Общий поток : 3301 Кбит/сек
Название фильма : Kandidaten.2008
Дата кодирования : UTC 2016-08-29 19:57:24
Программа кодирования : mkvmerge v5.3.0 ('I could have danced') built on Feb 9 2012 10:38:07
Библиотека кодирования : libebml v1.2.3 + libmatroska v1.3.0
Attachment : Yes
Видео
Идентификатор : 1
Формат : AVC
Формат/Информация : Advanced Video Codec
Профиль формата : [email protected]
Параметр CABAC формата : Да
Параметр ReFrames формата : 12 кадров
Идентификатор кодека : V_MPEG4/ISO/AVC
Продолжительность : 1 ч. 34 м.
Битрейт : 2663 Кбит/сек
Ширина : 1024 пикселя
Высота : 434 пикселя
Соотношение сторон : 2,35:1
Режим частоты кадров : Постоянный
Частота кадров : 25,000 кадров/сек
Цветовое пространство : YUV
Субдискретизация насыщенности : 4:2:0
Битовая глубина : 8 бит
Тип развёртки : Прогрессивная
Бит/(Пиксели*Кадры) : 0.240
Размер потока : 1,72 Гбайт (79%)
Библиотека кодирования : x264 core 146 r2538 121396c
Настройки программы : cabac=1 / ref=12 / deblock=1:-3:-3 / analyse=0x3:0x133 / me=umh / subme=10 / psy=1 / psy_rd=1.00:0.10 / mixed_ref=1 / me_range=32 / chroma_me=1 / trellis=2 / 8x8dct=1 / cqm=0 / deadzone=21,11 / fast_pskip=0 / chroma_qp_offset=-3 / threads=12 / lookahead_threads=2 / sliced_threads=0 / nr=0 / decimate=0 / interlaced=0 / bluray_compat=0 / constrained_intra=0 / bframes=8 / b_pyramid=2 / b_adapt=2 / b_bias=0 / direct=3 / weightb=1 / open_gop=0 / weightp=2 / keyint=250 / keyint_min=25 / scenecut=40 / intra_refresh=0 / rc_lookahead=40 / rc=2pass / mbtree=0 / bitrate=2663 / ratetol=1.0 / qcomp=0.60 / qpmin=0 / qpmax=69 / qpstep=4 / cplxblur=20.0 / qblur=0.5 / vbv_maxrate=50000 / vbv_bufsize=62500 / nal_hrd=none / filler=0 / ip_ratio=1.40 / pb_ratio=1.30 / aq=1:0.70
Default : Да
Forced : Нет
Аудио #1
Идентификатор : 2
Формат : AC-3
Формат/Информация : Audio Coding 3
Расширение режима : CM (complete main)
Параметр Endianness формата : Big
Идентификатор кодека : A_AC3
Продолжительность : 1 ч. 34 м.
Вид битрейта : Постоянный
Битрейт : 448 Кбит/сек
Каналы : 6 каналов
Расположение каналов : Front: L C R, Side: L R, LFE
Частота : 48,0 КГц
Битовая глубина : 16 бит
Метод сжатия : С потерями
Размер потока : 304 Мбайт (14%)
Заголовок : AVO (Антон Карповский)
Язык : Russian
Default : Да
Forced : Нет
Аудио #2
Идентификатор : 3
Формат : AC-3
Формат/Информация : Audio Coding 3
Расширение режима : CM (complete main)
Параметр Endianness формата : Big
Идентификатор кодека : A_AC3
Продолжительность : 1 ч. 34 м.
Вид битрейта : Постоянный
Битрейт : 192 Кбит/сек
Каналы : 2 канала
Расположение каналов : Front: L R
Частота : 48,0 КГц
Битовая глубина : 16 бит
Метод сжатия : С потерями
Размер потока : 130 Мбайт (6%)
Заголовок : VO (Александр Райдер - Rider) (AC3 2.0 192 kbps)
Язык : Russian
Default : Нет
Forced : Нет
Текст #1
Идентификатор : 4
Формат : UTF-8
Идентификатор кодека : S_TEXT/UTF8
Идентификатор кодека/Информация : UTF-8 Plain Text
Язык : Russian
Default : Нет
Forced : Нет
Текст #2
Идентификатор : 5
Формат : UTF-8
Идентификатор кодека : S_TEXT/UTF8
Идентификатор кодека/Информация : UTF-8 Plain Text
Язык : Danish
Default : Нет
Forced : Нет
Текст #3
Идентификатор : 6
Формат : UTF-8
Идентификатор кодека : S_TEXT/UTF8
Идентификатор кодека/Информация : UTF-8 Plain Text
Язык : English
Default : Нет
Forced : Нет
Меню
00:00:00.000 : da:00:00:00.000
00:13:52.000 : da:00:13:52.000
00:31:05.000 : da:00:31:05.000
00:45:16.000 : da:00:45:16.000
01:01:54.000 : da:01:01:54.000
01:17:01.000 : da:01:17:01.000
01:32:34.000 : da:01:32:34.000
Скриншоты:

[Цитировать]



Показать сообщения:    

Текущее время: 04-Дек 23:28

Часовой пояс: UTC + 3


Вы не можете начинать темы
Вы не можете отвечать на сообщения
Вы не можете редактировать свои сообщения
Вы не можете удалять свои сообщения
Вы не можете голосовать в опросах
Вы не можете прикреплять файлы к сообщениям
Вы не можете скачивать файлы

!ВНИМАНИЕ!
Сайт не предоставляет электронные версии произведений, а занимается лишь коллекционированием и каталогизацией ссылок, присылаемых и публикуемых на форуме нашими читателями. Если вы являетесь правообладателем какого-либо представленного материала и не желаете, чтобы ссылка на него находилась в нашем каталоге, свяжитесь с нами, и мы незамедлительно удалим ее. Файлы для обмена на трекере предоставлены пользователями сайта, и администрация не несет ответственности за их содержание. Просьба не заливать файлы, защищенные авторскими правами, а также файлы нелегального содержания!