[ Сегодня идет свободное скачивание без начисления Download ]


Статистика раздачи
Нет
 
   
 
Top  
 
 
-Самаритянин / The Samaritan (2012) BDRip-«Ты должен знать секрет, чтобы рассказать тайну»- Русское название: Самаритянин
Оригинальное название: The Samaritan
Год выпуска: 2012
Производство: Канада, H2O Motion Pictures, 2262730 Ontario, Middle Child Films Inc.
Жанр: Триллер, Драма
Перевод: Профессиональный многоголосый, [Baibako]
Язык субтитров: Английский
Вид субтитров: Вшитые отключаемые
Дата мировой премьеры: 03 марта 2012
Режиссер: Дэвид Уивер
Продюсер: Тони Воск, Сюзан Черитон, Андрас Хамори
Актеры: Сэмюэл Л. Джексон, Люк Кирби, Рут Негга, Том Уилкинсон, Джил Беллоуз, Аарон Пул, Том МакКэмус, Марта Барнс, Стефен Макинтайр, Алан С. Петерсон
Описание фильма:
В центре повествования — мошенник, который отсидел за свои преступления 20 лет и решил завязать. Он встречает молодую женщину, с которой хотел бы иметь совместное будущее, а тут к нему подкатывает сын бывшего подельника, который уговаривает его на последнее дело.- -Продолжительность: 01:33:09
Качество видео: BDRip
Видеокодек: MPEG-4 AVC/H.264
Битрейт видео: ~6324 kb/s
Размер кадра: 1280x720
Аудио:
Аудио 1: AC3, 384 kb/s (6 ch) Русский
Аудио 2: DTS, 1510 kb/s (6 ch) Английский
Сэмпл: Скачать-

MI

Общее
Уникальный идентификатор                 : 188238696902543171821977153565030510375 (0x8D9D744D60ED5FC48E6B57DCF63A6F27)
Полное имя                               : E:\Загрузка\The.Samaritan.2012.P.BDRip.720p.mkv
Формат                                   : Matroska
Версия формата                           : Version 2
Размер файла                             : 5,46 Гбайт
Продолжительность                        : 1 ч. 33 м.
Общий поток                              : 8385 Кбит/сек
Дата кодирования                         : UTC 2013-01-29 12:16:12
Программа кодирования                    : mkvmerge v5.2.0 ('I can't explain') built on Dec 18 2011 18:12:03
Библиотека кодирования                   : libebml v1.2.3 + libmatroska v1.3.0
Видео
Идентификатор                            : 1
Формат                                   : AVC
Формат/Информация                        : Advanced Video Codec
Профиль формата                          : [url=mailto:[email protected]][email protected][/url]
Параметр CABAC формата                   : Да
Параметр ReFrames формата                : 9 кадров
Идентификатор кодека                     : V_MPEG4/ISO/AVC
Продолжительность                        : 1 ч. 33 м.
Битрейт                                  : 6324 Кбит/сек
Ширина                                   : 1280 пикселей
Высота                                   : 720 пикселей
Соотношение сторон                       : 16:9
Частота кадров                           : 23,976 кадра/сек
Цветовое пространство                    : YUV
Субдискретизация насыщенности            : 4:2:0
Битовая глубина                          : 8 бит
Тип развёртки                            : Прогрессивная
Бит/(Пиксели*Кадры)                      : 0.286
Размер потока                            : 4,12 Гбайт (75%)
Заголовок                                : The.Samaritan.2012.720p.BluRay.DD5.1.x264-EbP
Библиотека кодирования                   : x264 core 124 r2197 69a0443
Настройки программы                      : cabac=1 / ref=9 / deblock=1:-3:-3 / analyse=0x3:0x113 / me=tesa / subme=11 / psy=1 / psy_rd=1.05:0.00 / mixed_ref=1 / me_range=16 / chroma_me=1 / trellis=2 / 8x8dct=1 / cqm=0 / deadzone=21,11 / fast_pskip=0 / chroma_qp_offset=-2 / threads=12 / sliced_threads=0 / nr=0 / decimate=0 / interlaced=0 / bluray_compat=0 / constrained_intra=0 / bframes=9 / b_pyramid=2 / b_adapt=2 / b_bias=0 / direct=3 / weightb=1 / open_gop=0 / weightp=2 / keyint=250 / keyint_min=23 / scenecut=40 / intra_refresh=0 / rc_lookahead=40 / rc=crf / mbtree=1 / crf=14.0 / qcomp=0.60 / qpmin=0 / qpmax=69 / qpstep=4 / ip_ratio=1.40 / aq=1:0.80
Язык                                     : English
Default                                  : Да
Forced                                   : Да
Коэффициенты матрицы                     : BT.709-5, BT.1361, IEC 61966-2-4 709, SMPTE RP177
Аудио #1
Идентификатор                            : 2
Формат                                   : AC-3
Формат/Информация                        : Audio Coding 3
Расширение режима                        : CM (complete main)
Параметр Endianness формата              : Big
Идентификатор кодека                     : A_AC3
Продолжительность                        : 1 ч. 33 м.
Вид битрейта                             : Постоянный
Битрейт                                  : 384 Кбит/сек
Каналы                                   : 6 каналов
Расположение каналов                     : Front: L C R, Side: L R, LFE
Частота                                  : 48,0 КГц
Битовая глубина                          : 16 бит
Метод сжатия                             : С потерями
Размер потока                            : 256 Мбайт (5%)
Заголовок                                : DD 5.1 @ 384 kbps - MVO, [baibako]
Язык                                     : Russian
Default                                  : Да
Forced                                   : Да
Аудио #2
Идентификатор                            : 3
Формат                                   : DTS
Формат/Информация                        : Digital Theater Systems
Идентификатор кодека                     : A_DTS
Продолжительность                        : 1 ч. 33 м.
Вид битрейта                             : Постоянный
Битрейт                                  : 1510 Кбит/сек
Каналы                                   : 6 каналов
Расположение каналов                     : Front: L C R, Side: L R, LFE
Частота                                  : 48,0 КГц
Битовая глубина                          : 16 бит
Метод сжатия                             : С потерями
Размер потока                            : 1006 Мбайт (18%)
Заголовок                                : DTS 5.1 @ 1536 kbps
Язык                                     : English
Default                                  : Нет
Forced                                   : Нет
Текст
Идентификатор                            : 4
Формат                                   : UTF-8
Идентификатор кодека                     : S_TEXT/UTF8
Идентификатор кодека/Информация          : UTF-8 Plain Text
Язык                                     : English
Default                                  : Нет
Forced                                   : Нет
Меню
00:00:00.000                             : en:00:00:00.000
00:08:10.740                             : en:00:08:10.740
00:18:17.471                             : en:00:18:17.471
00:30:04.094                             : en:00:30:04.094
00:40:29.636                             : en:00:40:29.636
00:48:11.055                             : en:00:48:11.055
00:54:21.300                             : en:00:54:21.300
00:59:20.098                             : en:00:59:20.098
01:06:41.831                             : en:01:06:41.831
01:14:43.729                             : en:01:14:43.729
01:26:26.807                             : en:01:26:26.807
01:30:04.399                             : en:01:30:04.399
-Cкриншоты из фильма:
-Приятного просмотра
и не забываем говорить СПАСИБО...
-Время раздачи: 24/7
до 15 скачавших..

[Цитировать]



Показать сообщения:    

Текущее время: 04-Дек 11:17

Часовой пояс: UTC + 3


Вы не можете начинать темы
Вы не можете отвечать на сообщения
Вы не можете редактировать свои сообщения
Вы не можете удалять свои сообщения
Вы не можете голосовать в опросах
Вы не можете прикреплять файлы к сообщениям
Вы не можете скачивать файлы

!ВНИМАНИЕ!
Сайт не предоставляет электронные версии произведений, а занимается лишь коллекционированием и каталогизацией ссылок, присылаемых и публикуемых на форуме нашими читателями. Если вы являетесь правообладателем какого-либо представленного материала и не желаете, чтобы ссылка на него находилась в нашем каталоге, свяжитесь с нами, и мы незамедлительно удалим ее. Файлы для обмена на трекере предоставлены пользователями сайта, и администрация не несет ответственности за их содержание. Просьба не заливать файлы, защищенные авторскими правами, а также файлы нелегального содержания!