[ Сегодня идет свободное скачивание без начисления Download ]


Статистика раздачи
Нет
 
   
 
Top  
 
 
-Running Wild - Rapid Foray--
Год издания: 2016
Страна: Germany (Hamburg)
Жанр: Heavy, Power, Speed Metal
Продолжительность: 00:57:04-Лейбл издания:
Страна-выпуска диска: Germany
Номер по каталогу: SPV 267392 CD-Формат: FLAC
Битрейт аудио: Lossless
Тип рипа: image +.cue
Наличие сканов в содержимом раздачи: да
-

Трэклист


01. Black Skies, Red Flag (04:35)
02. Warmongers (04:19)
03. Stick to Your Guns (04:56)
04. Rapid Foray (04:44)
05. By the Blood in Your Heart (05:10)
06. The Depth of the Sea (Nautilus) (03:51)
07. Black Bart (04:59)
08. Hellestrified (04:18)
09. Blood Moon Rising (04:13)
10. Into the West (04:23)
11. Last of the Mohicans (11:11)
-

Лог создания рипа

Exact Audio Copy V1.2 from 12. August 2016
EAC extraction logfile from 24. August 2016, 1:25
Running Wild / Rapid Foray
Used drive  : ATAPI   iHAS122   W   Adapter: 2  ID: 0
Read mode               : Secure
Utilize accurate stream : Yes
Defeat audio cache      : Yes
Make use of C2 pointers : No
Read offset correction                      : 48
Overread into Lead-In and Lead-Out          : No
Fill up missing offset samples with silence : Yes
Delete leading and trailing silent blocks   : No
Null samples used in CRC calculations       : Yes
Used interface                              : Installed external ASPI interface
Used output format              : User Defined Encoder
Selected bitrate                : 1024 kBit/s
Quality                         : High
Add ID3 tag                     : No
Command line compressor         : C:\Program Files\FLAC\flac.exe
Additional command line options : -V -8 -T "Date=%year%" -T "Genre=%genre%" -T"COMMENT=Ripped by  Ilijan" -8 -V %source%
TOC of the extracted CD
     Track |   Start  |  Length  | Start sector | End sector
    ---------------------------------------------------------
        1  |  0:00.00 |  4:37.37 |         0    |    20811
        2  |  4:37.37 |  4:21.20 |     20812    |    40406
        3  |  8:58.57 |  4:58.29 |     40407    |    62785
        4  | 13:57.11 |  4:46.09 |     62786    |    84244
        5  | 18:43.20 |  5:12.72 |     84245    |   107716
        6  | 23:56.17 |  3:53.68 |    107717    |   125259
        7  | 27:50.10 |  5:01.06 |    125260    |   147840
        8  | 32:51.16 |  4:20.01 |    147841    |   167341
        9  | 37:11.17 |  4:15.72 |    167342    |   186538
       10  | 41:27.14 |  4:25.72 |    186539    |   206485
       11  | 45:53.11 | 11:11.09 |    206486    |   256819
Range status and errors
Selected range
     Filename D:\ilко\Running Wild - Rapid Foray.wav
     Peak level 98.8 %
     Extraction speed 3.9 X
     Range quality 99.9 %
     Test CRC EDDE85CF
     Copy CRC EDDE85CF
     Copy OK
No errors occurred
AccurateRip summary
Track  1  not present in database
Track  2  not present in database
Track  3  not present in database
Track  4  not present in database
Track  5  not present in database
Track  6  not present in database
Track  7  not present in database
Track  8  not present in database
Track  9  not present in database
Track 10  not present in database
Track 11  not present in database
None of the tracks are present in the AccurateRip database
End of status report
---- CUETools DB Plugin V2.1.6
[CTDB TOCID: _TLy2p5abR4DMZvyKaajqeJJZtM-] disk not present in database
Submit result: _TLy2p5abR4DMZvyKaajqeJJZtM- has been uploaded

Индексная карта (non-compilant .cue)

REM GENRE "Power Metal"
REM DATE 2016
REM DISCID A20D600B
REM COMMENT "ExactAudioCopy v1.2"
PERFORMER "Running Wild"
TITLE "Rapid Foray"
REM COMPOSER ""
FILE "Running Wild - Rapid Foray.flac" WAVE
  TRACK 01 AUDIO
    TITLE "Black Skies, Red Flag"
    PERFORMER "Running Wild"
    REM COMPOSER ""
    INDEX 01 00:00:00
  TRACK 02 AUDIO
    TITLE "Warmongers"
    PERFORMER "Running Wild"
    REM COMPOSER ""
    INDEX 00 04:35:37
    INDEX 01 04:37:37
  TRACK 03 AUDIO
    TITLE "Stick To Your Guns"
    PERFORMER "Running Wild"
    REM COMPOSER ""
    INDEX 00 08:56:57
    INDEX 01 08:58:57
  TRACK 04 AUDIO
    TITLE "Rapid Foray"
    PERFORMER "Running Wild"
    REM COMPOSER ""
    INDEX 00 13:55:11
    INDEX 01 13:57:11
  TRACK 05 AUDIO
    TITLE "By The Blood In Your Heart"
    PERFORMER "Running Wild"
    REM COMPOSER ""
    INDEX 00 18:41:20
    INDEX 01 18:43:20
  TRACK 06 AUDIO
    TITLE "The Depth Of The Sea (Nautilus)"
    PERFORMER "Running Wild"
    REM COMPOSER ""
    INDEX 00 23:54:17
    INDEX 01 23:56:17
  TRACK 07 AUDIO
    TITLE "Black Bart"
    PERFORMER "Running Wild"
    REM COMPOSER ""
    INDEX 00 27:48:10
    INDEX 01 27:50:10
  TRACK 08 AUDIO
    TITLE "Hellectrified"
    PERFORMER "Running Wild"
    REM COMPOSER ""
    INDEX 00 32:49:16
    INDEX 01 32:51:16
  TRACK 09 AUDIO
    TITLE "Blood Moon Rising"
    PERFORMER "Running Wild"
    REM COMPOSER ""
    INDEX 00 37:09:17
    INDEX 01 37:11:17
  TRACK 10 AUDIO
    TITLE "Into The West"
    PERFORMER "Running Wild"
    REM COMPOSER ""
    INDEX 00 41:25:14
    INDEX 01 41:27:14
  TRACK 11 AUDIO
    TITLE "Last Of The Mohicans"
    PERFORMER "Running Wild"
    REM COMPOSER ""
    INDEX 00 45:51:11
    INDEX 01 45:53:11
--

[Цитировать]



Показать сообщения:    

Текущее время: 10-Дек 15:52

Часовой пояс: UTC + 3


Вы не можете начинать темы
Вы не можете отвечать на сообщения
Вы не можете редактировать свои сообщения
Вы не можете удалять свои сообщения
Вы не можете голосовать в опросах
Вы не можете прикреплять файлы к сообщениям
Вы не можете скачивать файлы

!ВНИМАНИЕ!
Сайт не предоставляет электронные версии произведений, а занимается лишь коллекционированием и каталогизацией ссылок, присылаемых и публикуемых на форуме нашими читателями. Если вы являетесь правообладателем какого-либо представленного материала и не желаете, чтобы ссылка на него находилась в нашем каталоге, свяжитесь с нами, и мы незамедлительно удалим ее. Файлы для обмена на трекере предоставлены пользователями сайта, и администрация не несет ответственности за их содержание. Просьба не заливать файлы, защищенные авторскими правами, а также файлы нелегального содержания!