[ Сегодня идет свободное скачивание без начисления Download ]


Статистика раздачи
Нет
 
   
 
Top  
 
 
Дрянные девчонки / Mean Girls«Осторожно! Они сзади!»
Год выпуска: 2004
Страна: США
Производство: Broadway Video, M.G. Films, Paramount Pictures
Жанр: Мелодрама, Комедия
Режиссер: Марк С. Уотерс
В ролях: Линдси Лохан, Рэйчел МакАдамс, Тина Фей, Тим Медоуз, Эми Полер, Ана Гэстайер, Лэйси Чэберт, Лиззи Каплан, Дэниел Фрэнзиси, Нил Флинн
Перевод: Профессиональный (полное дублирование)
Субтитры: Отсутствуют
Описание: Проведя все свое детство в Африке со своими предками-зоологами, Кэйди Хэрон решила, что знает все про правило «выживает сильнейший». Но закон джунглей полностью пересматривается, когда домашняя 15-летняя девушка в первый раз попадает в обычную школу и влюбляется в бывшего парня самой подлой девчонки в школе…
[kp]61254[/kp] [imdb]tt0377092[/imdb]
Качество: DVDRip
Продолжительность: 01:36:53
Формат: AVI
Видео кодек: XviD
Аудио кодек: MP3
Видео: 704x392 (16:9), 23.976 fps, XviD build ~937 kbps avg, 0.142 bit/pixel
Аудио: 48 kHz, MPEG Layer 3, 2 ch, ~128.00 kbps avg
Премьера (мир): 19 апреля 2004
Премьера (РФ): 10 июня 2004

Media Info

Видео
Идентификатор                            : 0
Формат                                   : MPEG-4 Visual
Профиль формата                          : Advanced Simple@L5
Параметр BVOP формата                    : 1
Параметр QPel формата                    : Нет
Параметр GMC формата                     : Без точки перехода
Параметр матрицы формата                 : Default (H.263)
Идентификатор кодека                     : XVID
Идентификатор кодека/Подсказка           : XviD
Продолжительность                        : 1 ч. 36 м.
Битрейт                                  : 937 Кбит/сек
Ширина                                   : 704 пикселя
Высота                                   : 392 пикселя
Соотношение сторон                       : 16:9
Частота кадров                           : 23,976 кадра/сек
Цветовое пространство                    : YUV
Субдискретизация насыщенности            : 4:2:0
Битовая глубина                          : 8 бит
Тип развёртки                            : Прогрессивная
Метод сжатия                             : С потерями
Бит/(Пиксели*Кадры)                      : 0.142
Размер потока                            : 649 Мбайт (87%)
Библиотека кодирования                   : XviD 1.2.0.dev47 (UTC 2006-11-01)
Аудио
Идентификатор                            : 1
Формат                                   : MPEG Audio
Версия формата                           : Version 1
Профиль формата                          : Layer 3
Идентификатор кодека                     : 55
Идентификатор кодека/Подсказка           : MP3
Продолжительность                        : 1 ч. 36 м.
Вид битрейта                             : Постоянный
Битрейт                                  : 128 Кбит/сек
Каналы                                   : 2 канала
Частота                                  : 48,0 КГц
Метод сжатия                             : С потерями
Размер потока                            : 88,7 Мбайт (12%)
Выравнивание                             : Соединение по промежуткам
Продолжительность промежутка             : 42  мс. (1,00 видеокадр)
Время предзагрузки промежутка            : 504  мс.
Библиотека кодирования                   : LAME3.97
Настройки программы                      : -m s -V 4 -q 2 -lowpass 17 -b 128

Скриншоты



[Цитировать]



Показать сообщения:    

Текущее время: 08-Дек 19:05

Часовой пояс: UTC + 3


Вы не можете начинать темы
Вы не можете отвечать на сообщения
Вы не можете редактировать свои сообщения
Вы не можете удалять свои сообщения
Вы не можете голосовать в опросах
Вы не можете прикреплять файлы к сообщениям
Вы не можете скачивать файлы

!ВНИМАНИЕ!
Сайт не предоставляет электронные версии произведений, а занимается лишь коллекционированием и каталогизацией ссылок, присылаемых и публикуемых на форуме нашими читателями. Если вы являетесь правообладателем какого-либо представленного материала и не желаете, чтобы ссылка на него находилась в нашем каталоге, свяжитесь с нами, и мы незамедлительно удалим ее. Файлы для обмена на трекере предоставлены пользователями сайта, и администрация не несет ответственности за их содержание. Просьба не заливать файлы, защищенные авторскими правами, а также файлы нелегального содержания!