[ Сегодня идет свободное скачивание без начисления Download ]


Статистика раздачи
Нет
 
   
 
Top  
 
 
-Ночные ласточки (1-8 серии из 8) (2012) DVB-
Оригинальное название: Ночные ласточки
Год выпуска: 2012
Страна: Россия / Star Media
Жанр: боевик, мелодрама-
Премьера (РФ): 28 января 2013 (Первый канал)
Режиссер: Михаил Кабанов
Актеры: Татьяна Арнтгольц, Денис Никифоров, Елизавета Нилова, Михаил Евланов, Евгений Ганелин, Игорь Савочкин, Анатолий Пашинин, Екатерина Олькина, Мария Пирогова, Олеся Фаттахова, Игорь Теплов, Юрий Осипов, Валерий Афанасьев, Виктор Либеров, Елена Куликова, Юлия Кельчевская, Полина Райкина, Евгения Бурдихина...

Описание фильма: В годы Великой Отечественной войны в рядах Красной Армии, наравне с мужчинами, сражалось около 600 000 женщин. Много женщин было и в авиации: лётчицы, штурманы, стрелки — радисты, вооруженцы… При этом, женщины — авиаторы сражались как в составах обычных «мужских» авиационных полков, так и отдельных «женских». О некоторых наиболее известных лётчицах, об истории создания и боевом пути женских авиационных полков, и будет этот рассказ...-Продолжительность: серия ~ 00:41
Качество видео: DVB
Видеокодек: MPEG2
Битрейт видео: ~5807 kbps avg
Размер кадра: 720x576 (16:9), 25.000 fps
Аудиокодек: MPEG Audio Layer 2
Аудио: 48 kHz, 2 ch, ~192 kbps avg
Субтитры: отсутствуют

MediaInfo:

Формат : MPEG-PS
Размер файла : 1,76 Гбайт
Продолжительность : 41 м.
Режим общего битрейта : Переменный
Общий поток : 6120 Кбит/сек
Видео
Идентификатор : 224 (0xE0)
Формат : MPEG Video
Версия формата : Version 2
Профиль формата : Main@Main
Параметр BVOP формата : Да
Параметр матрицы формата : Выборочная
Параметр GOP формата : M=3, N=24
Продолжительность : 41 м.
Вид битрейта : Переменный
Битрейт : 5807 Кбит/сек
Максимальный битрейт : 15,0 Мбит/сек
Ширина : 720 пикселей
Высота : 576 пикселей
Соотношение сторон : 16:9
Частота кадров : 25,000 кадров/сек
Стандарт вещания : PAL
Цветовое пространство : YUV
Субдискретизация насыщенности : 4:2:0
Битовая глубина : 8 бит
Тип развёртки : Чересстрочная
Порядок развёртки : Верхнее поле первое
Метод сжатия : С потерями
Бит/(Пиксели*Кадры) : 0.560
Размер потока : 1,67 Гбайт (95%)
Аудио
Идентификатор : 192 (0xC0)
Формат : MPEG Audio
Версия формата : Version 1
Профиль формата : Layer 2
Продолжительность : 41 м.
Вид битрейта : Постоянный
Битрейт : 192 Кбит/сек
Каналы : 2 канала
Частота : 48,0 КГц
Метод сжатия : С потерями
Задержка видео : 1 мс.
Размер потока : 56,6 Мбайт (3%)
Скриншоты:

Ночные ласточки [8 серий из 8] (2012) SATRipВремя раздачи: 24/7

[Цитировать]



Показать сообщения:    

Текущее время: 08-Дек 12:57

Часовой пояс: UTC + 3


Вы не можете начинать темы
Вы не можете отвечать на сообщения
Вы не можете редактировать свои сообщения
Вы не можете удалять свои сообщения
Вы не можете голосовать в опросах
Вы не можете прикреплять файлы к сообщениям
Вы не можете скачивать файлы

!ВНИМАНИЕ!
Сайт не предоставляет электронные версии произведений, а занимается лишь коллекционированием и каталогизацией ссылок, присылаемых и публикуемых на форуме нашими читателями. Если вы являетесь правообладателем какого-либо представленного материала и не желаете, чтобы ссылка на него находилась в нашем каталоге, свяжитесь с нами, и мы незамедлительно удалим ее. Файлы для обмена на трекере предоставлены пользователями сайта, и администрация не несет ответственности за их содержание. Просьба не заливать файлы, защищенные авторскими правами, а также файлы нелегального содержания!