[ Сегодня идет свободное скачивание без начисления Download ]


Статистика раздачи
Нет
 
   
 
Top  
 
 
-Синистер / Sinister (2012) BDRip-«Увидевший его не спасётся.»- Русское название: Синистер
Оригинальное название: Sinister
Год выпуска: 2012
Производство: США, Alliance Films, Automatik Entertainment, Blumhouse Productions, IM Global, Possessed Pictures
Жанр: Ужасы, Триллер, Детектив
Перевод: Дублированный
Субтитры: Вшитые отключаемые
Язык субтитров: Английские
Дата мировой премьеры: 11 марта 2012
Дата российской премьеры: 11 октября 2012, «Top Film Distribution»
Дата выхода DVD релиза: 22 ноября 2012, «Новый Диск», «New Dream media»
Режиссер: Скотт Дерриксон
Продюсер: Джейсон Блум, Брайан Кэвэна-Джонс, Жанетт Брилл, ...
Актеры: Итан Хоук, Джульет Райлэнс, Фред Долтон Томпсон, Джеймс Рэнсон, Майкл Холл Д’Аддарио, Клер Фоли, Роб Райли, Тэвис Смайли, Джанет Заппала, Виктория Ли
Описание фильма:
Успешный автор детективов Освальд Эллисон для сюжетов своих бестселлеров всегда использовал информацию о реальных преступлениях. Однажды он узнал об одной страшной истории, которая могла бы стать основой для сюжета нового романа. Вместе с семьей он поселяется в небольшом городке, в доме, где почти год назад развернулась эта леденящая душу трагедия – были убиты все жильцы. Писатель случайно находит видеозаписи, которые являются ключом к тайне преступления. Вместе с местным шерифом он взялся за раскрытие кровавого преступления. Но ни что не дается даром: в доме начинают происходить жуткие вещи и теперь под угрозой жизнь его близких. Они столкнулись с чем-то, от чего нет спасения…

Продолжительность: 01:49:45
Качество видео: BDRip [AMIABLE]
Видеокодек: MPEG-4 AVC/H.264
Битрейт видео: ~9211 kbps
Размер кадра: 1920x800
Аудио#1: Русский: AC3 5.1, ~448 kbps [Дублированный]
Аудио#2: Английский: DTS 5.1, ~755 kbps [Оригинальный]

MediaInfo

Общее
Уникальный идентификатор                 : 207318784108947142243617891541518515192 (0x9BF8253B395BCC0395227FDB2599FBF8)
Полное имя                               : I:\BDRip 1080\Sinister.2012.1080p.BDRip.NNM-Club.ru.mkv
Формат                                   : Matroska
Версия формата                           : Version 4 / Version 2
Размер файла                             : 7,99 Гбайт
Продолжительность                        : 1 ч. 49 м.
Общий поток                              : 10,4 Мбит/сек
Название фильма                          : NNM-Club.ru
Дата кодирования                         : UTC 2013-01-27 11:56:12
Программа кодирования                    : mkvmerge v6.0.0 ('Coming Up For Air') built on Jan 20 2013 09:52:00
Библиотека кодирования                   : libebml v1.3.0 + libmatroska v1.4.0
Видео
Идентификатор                            : 1
Формат                                   : AVC
Формат/Информация                        : Advanced Video Codec
Профиль формата                          : [url=mailto:[email protected]][email protected][/url]
Параметр CABAC формата                   : Да
Параметр ReFrames формата                : 5 кадров
Идентификатор кодека                     : V_MPEG4/ISO/AVC
Продолжительность                        : 1 ч. 49 м.
Битрейт                                  : 9211 Кбит/сек
Ширина                                   : 1920 пикселей
Высота                                   : 800 пикселей
Соотношение сторон                       : 2,40:1
Режим частоты кадров                     : Постоянный
Частота кадров                           : 23,976 кадра/сек
Цветовое пространство                    : YUV
Субдискретизация насыщенности            : 4:2:0
Битовая глубина                          : 8 бит
Тип развёртки                            : Прогрессивная
Бит/(Пиксели*Кадры)                      : 0.250
Размер потока                            : 6,90 Гбайт (86%)
Библиотека кодирования                   : x264 core 129 r2245 bc13772
Настройки программы                      : cabac=1 / ref=5 / deblock=1:0:0 / analyse=0x3:0x113 / me=umh / subme=8 / psy=1 / psy_rd=1.00:0.00 / mixed_ref=1 / me_range=16 / chroma_me=1 / trellis=1 / 8x8dct=1 / cqm=0 / deadzone=21,11 / fast_pskip=1 / chroma_qp_offset=-2 / threads=12 / lookahead_threads=2 / sliced_threads=0 / nr=0 / decimate=1 / interlaced=0 / bluray_compat=0 / constrained_intra=0 / bframes=3 / b_pyramid=2 / b_adapt=2 / b_bias=0 / direct=3 / weightb=1 / open_gop=0 / weightp=2 / keyint=240 / keyint_min=24 / scenecut=40 / intra_refresh=0 / rc_lookahead=50 / rc=2pass / mbtree=1 / bitrate=9211 / ratetol=1.0 / qcomp=0.60 / qpmin=0 / qpmax=69 / qpstep=4 / cplxblur=20.0 / qblur=0.5 / ip_ratio=1.40 / aq=1:1.00
Язык                                     : English
Default                                  : Да
Forced                                   : Нет
Аудио #1
Идентификатор                            : 2
Формат                                   : AC-3
Формат/Информация                        : Audio Coding 3
Расширение режима                        : CM (complete main)
Параметр Endianness формата              : Big
Идентификатор кодека                     : A_AC3
Продолжительность                        : 1 ч. 49 м.
Вид битрейта                             : Постоянный
Битрейт                                  : 448 Кбит/сек
Каналы                                   : 6 каналов
Расположение каналов                     : Front: L C R, Side: L R, LFE
Частота                                  : 48,0 КГц
Битовая глубина                          : 16 бит
Метод сжатия                             : С потерями
Задержка видео                           : 8 с. 0 мс.
Размер потока                            : 352 Мбайт (4%)
Язык                                     : Russian
Default                                  : Да
Forced                                   : Да
Аудио #2
Идентификатор                            : 3
Формат                                   : DTS
Формат/Информация                        : Digital Theater Systems
Режим                                    : 16
Параметр Endianness формата              : Big
Идентификатор кодека                     : A_DTS
Продолжительность                        : 1 ч. 49 м.
Вид битрейта                             : Постоянный
Битрейт                                  : 768 Кбит/сек
Каналы                                   : 6 каналов
Расположение каналов                     : Front: L C R, Side: L R, LFE
Частота                                  : 48,0 КГц
Битовая глубина                          : 24 бит
Метод сжатия                             : С потерями
Задержка видео                           : 11 мс.
Размер потока                            : 603 Мбайт (7%)
Язык                                     : English
Default                                  : Нет
Forced                                   : Нет
Текст
Идентификатор                            : 4
Формат                                   : UTF-8
Идентификатор кодека                     : S_TEXT/UTF8
Идентификатор кодека/Информация          : UTF-8 Plain Text
Язык                                     : English
Default                                  : Нет
Forced                                   : Нет
Меню
00:00:00.000                             : en:00:00:00.000
00:10:47.605                             : en:00:10:47.605
00:19:12.360                             : en:00:19:12.360
00:27:15.217                             : en:00:27:15.217
00:37:05.557                             : en:00:37:05.557
00:46:42.383                             : en:00:46:42.383
00:56:37.144                             : en:00:56:37.144
01:07:20.411                             : en:01:07:20.411
01:17:10.751                             : en:01:17:10.751
01:26:22.803                             : en:01:26:22.803
01:33:41.616                             : en:01:33:41.616
01:43:15.147                             : en:01:43:15.147

Рецензия:

Совсем не такой,как все:"Синистер"
Фильм мне просто очень понравился...и эти слова,между прочим,исходят от человека,который в принципе терпеть не может фильмы ужасы.Какое-то время из всех хорроров я признавал,наверное,только "Звонок" и "Проклятие".Но,не ожидая какого-то эффекта вообще,не смотря трейлер и зная только немного о сюжете,на "Синистер" сходить решил.И мало того,что он оказался страшным и интересным,так я еще и готов признать,что это один из лучших фильмов ужасов,которых мне только доводилось видеть.
Эллисон(Итан Хоук) - писатель,вместе со своей семьей решает переехать в спокойное(как поначалу казалось) местечко,где он может написать свой новый роман.Но Эллисон знает то,что желает укрыть от своих близких - у этого дома весьма темное прошлое.Предыдущие владельцы дома были повешены на заднем дворе,а младшая из них,Стэфани,объявлена без вести пропавшей.На чердаке дома Эллисон находит коробку,заполненную пленками,а когда начинает подробно рассматривать каждое видео,понимает, - ему подвернулась удача написать самую потрясающую книгу.
От "Синистера",к счастью,не пришлось ожидать каких-то через чур жестоких сцен насилия и яркой графики,чтобы реально напугаться.Только вот поначалу кажется,что кроме резких звуков и частой сменой кадра нас ничего не успугает,но с разворотом сюжетной линии становится страшновато далеко не только от этого.И,концовка,конечно,сильно повлияла на моё принятие решения поставить высокую оценку и так захвалить фильм.
Нельзя назвать "Синистер" одним из самых страшных фильмов,но некоторые кадры мне удавалось смотреть с трудом(особенно моменты,где Эллисон смотрел пленки).А домой я пришел в все еще шокированном состоянии от увиденного...это было страшно...и мне понравилась каждая секунда,проведенная мною в зале
Скриншоты: Пожалуйста не уходите с раздачи, дайте скачать другим!!! Время раздачи: с 21:00 до 7:00

[Цитировать]



Показать сообщения:    

Текущее время: 04-Дек 04:59

Часовой пояс: UTC + 3


Вы не можете начинать темы
Вы не можете отвечать на сообщения
Вы не можете редактировать свои сообщения
Вы не можете удалять свои сообщения
Вы не можете голосовать в опросах
Вы не можете прикреплять файлы к сообщениям
Вы не можете скачивать файлы

!ВНИМАНИЕ!
Сайт не предоставляет электронные версии произведений, а занимается лишь коллекционированием и каталогизацией ссылок, присылаемых и публикуемых на форуме нашими читателями. Если вы являетесь правообладателем какого-либо представленного материала и не желаете, чтобы ссылка на него находилась в нашем каталоге, свяжитесь с нами, и мы незамедлительно удалим ее. Файлы для обмена на трекере предоставлены пользователями сайта, и администрация не несет ответственности за их содержание. Просьба не заливать файлы, защищенные авторскими правами, а также файлы нелегального содержания!