[ Сегодня идет свободное скачивание без начисления Download ]


Статистика раздачи
Скачал: [ 6 ]
 
   
 
Top  
 
 
Geekbrains | METEOR. Возможности meteor js на примере написания веб приложения (2015) PCRec - Автор (режиссер): Geekbrains
Жанр: Программирование, JavaScript, meteor
Описание:
На данном курсе мы будем создавать приложение “Список задач", на примере которого мы разберем все основные возможности фреймворка.
Приложение будет разделено на клиента и сервер. На клиенте мы будем использовать Angular.js, для визуального оформления приложения мы будем использовать MaterialDesign.
В курсе разбираются все этапы создания приложения - от планирования до запуска.
Чему Вы научитесь:
Создавать веб приложения с помощью мощного фреймворка,настраивать архитектуру сложных веб приложений и оптимизировать их под мобильную платформу Android.
Продолжительность: 01:14:22
Качество видео: PCRec
Видео: AVC/H.264, 1920x1080, ~5230 Kbps

Программа курса:

Урок 1. Демонстрация готового приложения
Рассмотрим возможности будущего проекта
Урок 2. Установка окружения
Установка необходимых компонентов. Обзор окружения.
Урок 3. Установка дополнительных инструментов
Добавление в проект Angular.js и Material UI
Урок 4. Создаем структуру приложения
Разбор проекта «по полочкам»
Урок 5. Пользователь и регистрация
Добавление возможности создания собственного аккаунта
Урок 6. Реализация организации
Создание возможности сбора команды для выполнения задач
Урок 7. Администратор в системе
Настройка возможности администрирования
Урок 8. Пользователь в системе
Настройка возможностей пользователя
Урок 9. Задачи
Постановка первых задач
Урок 10. Android
Мобилизация приложения
Урок 11. Итоги
Подведение итогов
Аудио: AAC, 2 ch, 192 Kbps, CBR

Mediainfo:

Общее
Полное имя                               : D:\METEOR. Возможности meteor js на примере написания веб приложения\2. Установка окружения.mp4
Формат                                   : MPEG-4
Профиль формата                          : Base Media / Version 2
Идентификатор кодека                     : mp42 (mp42/isom)
Размер файла                             : 352 Мбайт
Продолжительность                        : 9 м. 3 с.
Режим общего битрейта                    : Переменный
Общий поток                              : 5427 Кбит/сек
Дата кодирования                         : UTC 2015-12-02 12:29:24
Дата пометки                             : UTC 2015-12-02 12:29:24
Видео
Идентификатор                            : 2
Формат                                   : AVC
Формат/Информация                        : Advanced Video Codec
Профиль формата                          : [email protected]
Параметр CABAC формата                   : Да
Параметр ReFrames формата                : 3 кадра
Параметр GOP формата                     : M=4, N=15
Идентификатор кодека                     : avc1
Идентификатор кодека/Информация          : Advanced Video Coding
Продолжительность                        : 9 м. 3 с.
Вид битрейта                             : Переменный
Битрейт                                  : 5230 Кбит/сек
Максимальный битрейт                     : 24,0 Мбит/сек
Ширина                                   : 1920 пикселей
Высота                                   : 1080 пикселей
Соотношение сторон                       : 16:9
Режим частоты кадров                     : Постоянный
Частота кадров                           : 30,000 кадров/сек
Стандарт вещания                         : NTSC
Цветовое пространство                    : YUV
Субдискретизация насыщенности            : 4:2:0
Битовая глубина                          : 8 бит
Тип развёртки                            : Прогрессивная
Бит/(Пиксели*Кадры)                      : 0.084
Размер потока                            : 339 Мбайт (96%)
Язык                                     : English
Дата кодирования                         : UTC 2015-12-02 12:29:24
Дата пометки                             : UTC 2015-12-02 12:29:24
Цветовой диапазон                        : Limited
Аудио
Идентификатор                            : 1
Формат                                   : AAC
Формат/Информация                        : Advanced Audio Codec
Профиль формата                          : LC
Идентификатор кодека                     : 40
Продолжительность                        : 9 м. 3 с.
Вид битрейта                             : Постоянный
Битрейт                                  : 192 Кбит/сек
Каналы                                   :  channel0
Channel(s)_Original                      : 2 канала
Расположение каналов                     : Front: L R
Частота                                  : 48,0 КГц
Частота кадров                           : 46,875 кадров/сек (1024 spf)
Метод сжатия                             : С потерями
Размер потока                            : 12,4 Мбайт (4%)
Язык                                     : English
Дата кодирования                         : UTC 2015-12-02 12:29:24
Дата пометки                             : UTC 2015-12-02 12:29:24
Скриншоты:

[Цитировать]



Показать сообщения:    

Текущее время: 06-Дек 08:52

Часовой пояс: UTC + 3


Вы не можете начинать темы
Вы не можете отвечать на сообщения
Вы не можете редактировать свои сообщения
Вы не можете удалять свои сообщения
Вы не можете голосовать в опросах
Вы не можете прикреплять файлы к сообщениям
Вы не можете скачивать файлы

!ВНИМАНИЕ!
Сайт не предоставляет электронные версии произведений, а занимается лишь коллекционированием и каталогизацией ссылок, присылаемых и публикуемых на форуме нашими читателями. Если вы являетесь правообладателем какого-либо представленного материала и не желаете, чтобы ссылка на него находилась в нашем каталоге, свяжитесь с нами, и мы незамедлительно удалим ее. Файлы для обмена на трекере предоставлены пользователями сайта, и администрация не несет ответственности за их содержание. Просьба не заливать файлы, защищенные авторскими правами, а также файлы нелегального содержания!