[ Сегодня идет свободное скачивание без начисления Download ]


Статистика раздачи
Нет
 
   
 
Top  
 
 
ШоугелзShowgirls«The side of Vegas you were never mean't to see.» Год выпуска: 1995
Страна: Франция, США
Жанр: драма
Продолжительность: 02:11:22
Перевод: Профессиональный дублированный
Режиссер: Пол Верховен / Paul Verhoeven
В ролях: Элизабет Беркли (Nomi Malone), Кайл МакЛоклен (Zack Carey), Джина Гершон (Cristal Connors), Гленн Пламмер (James Smith), Роберт Дави (Al Torres), Алан Рачинс (Tony Moss), Джина Равера (Molly Abrams), Лин Туччи (Henrietta 'Mama' Bazoom), Грег Трэвис (Phil Newkirk), Аль Руссо (Mr. Karlman), Патрик Бристоу (Marty Jacobsen), Уильям Шокли (Andrew Carver)
Описание: Молодая длинноногая танцовщица Номи отчаянно пытается добиться успеха в Лас-Вегасе и проникнуть в блистающий мир ярких огней, блеска и света шоу - сцены. Чтобы удержаться «на плаву», она соглашается на единственно возможную работу - стриптиз, пока ей не удается вытянуть свой счастливый билет - познакомиться с королевой сцены Лас-Вегаса Кристал.
Используя свое влияние, Кристал устраивает Номи в свое шоу и вводит ее в истинный мир шоу-бизнеса Лас-Вегаса - мир случая, предательства и интриг, в котором сексуальность можно использовать как власть.


MPAA: NC-17 - Лицам до 17 лет просмотр запрещен
Качество: BDRip
Контейнер: MKV
Видео: AVC, 1920x800 (2.40:1), 7767 kbps, 23,976 fps, 0,211 bpp
Аудио №1: русский /; AC3 / 5.1 / 48 kHz / 448 kbps / 16 bit
Аудио №2: английский / AC3 / 5.1 / 48 kHz / 448 kbps / 16 bit
Субтитры №1: русские
Субтитры №2: английские
Навигация по главам: есть

Media Info

General
Unique ID : 239381650517757450817834162662026748739 (0xB4173A9854F167129D171BF62B63A343)
Complete name : E:торрентShowgirls.1995.BDRip-F.HD.mkv
Format : Matroska
Format version : Version 2
File size : 7.94 GiB
Duration : 2h 11mn
Overall bit rate : 8 656 Kbps
Encoded date : UTC 2012-09-29 04:22:29
Writing application : mkvmerge v5.8.0 ('No Sleep / Pillow') built on Sep 2 2012 15:37:04
Writing library : libebml v1.2.3 + libmatroska v1.3.0
Video
ID : 1
Format : AVC
Format/Info : Advanced Video Codec
Format profile : [email protected]
Format settings, CABAC : Yes
Format settings, ReFrames : 5 frames
Codec ID : V_MPEG4/ISO/AVC
Duration : 2h 11mn
Bit rate : 7 767 Kbps
Width : 1 920 pixels
Height : 800 pixels
Display aspect ratio : 2.40:1
Frame rate : 23.976 fps
Color space : YUV
Chroma subsampling : 4:2:0
Bit depth : 8 bits
Scan type : Progressive
Bits/(Pixel*Frame) : 0.211
Stream size : 6.96 GiB (88%)
Writing library : x264 core 125 r2208 d9d2288
Encoding settings : cabac=1 / ref=5 / deblock=1:-3:-3 / analyse=0x3:0x113 / me=umh / subme=10 / psy=1 / psy_rd=0.90:0.20 / mixed_ref=1 / me_range=48 / chroma_me=1 / trellis=2 / 8x8dct=1 / cqm=0 / deadzone=21,11 / fast_pskip=0 / chroma_qp_offset=1 / threads=6 / lookahead_threads=1 / sliced_threads=0 / nr=0 / decimate=1 / interlaced=0 / bluray_compat=0 / constrained_intra=0 / bframes=8 / b_pyramid=2 / b_adapt=2 / b_bias=0 / direct=3 / weightb=1 / open_gop=0 / weightp=2 / keyint=240 / keyint_min=23 / scenecut=40 / intra_refresh=0 / rc=2pass / mbtree=0 / bitrate=7767 / ratetol=1.0 / qcomp=0.65 / qpmin=10 / qpmax=51 / qpstep=4 / cplxblur=20.0 / qblur=0.5 / ip_ratio=1.30 / pb_ratio=1.20 / aq=1:0.70
Language : English
Default : Yes
Forced : No
Audio #1
ID : 2
Format : AC-3
Format/Info : Audio Coding 3
Mode extension : CM (complete main)
Codec ID : A_AC3
Duration : 2h 11mn
Bit rate mode : Constant
Bit rate : 448 Kbps
Channel(s) : 6 channels
Channel positions : Front: L C R, Side: L R, LFE
Sampling rate : 48.0 KHz
Bit depth : 16 bits
Compression mode : Lossy
Stream size : 421 MiB (5%)
Title : Dub"Нева 1"
Language : Russian
Default : Yes
Forced : No
Audio #2
ID : 3
Format : AC-3
Format/Info : Audio Coding 3
Mode extension : CM (complete main)
Codec ID : A_AC3
Duration : 2h 11mn
Bit rate mode : Constant
Bit rate : 448 Kbps
Channel(s) : 6 channels
Channel positions : Front: L C R, Side: L R, LFE
Sampling rate : 48.0 KHz
Bit depth : 16 bits
Compression mode : Lossy
Stream size : 421 MiB (5%)
Language : English
Default : No
Forced : No
Text #1
ID : 4
Format : UTF-8
Codec ID : S_TEXT/UTF8
Codec ID/Info : UTF-8 Plain Text
Language : Russian
Default : No
Forced : No
Text #2
ID : 5
Format : UTF-8
Codec ID : S_TEXT/UTF8
Codec ID/Info : UTF-8 Plain Text
Language : English
Default : No
Forced : No
Menu
00:00:00.000 : en:Chapter 01
00:03:20.450 : en:Chapter 02
00:08:11.741 : en:Chapter 03
00:12:20.655 : en:Chapter 04
00:16:04.546 : en:Chapter 05
00:19:43.182 : en:Chapter 06
00:22:43.487 : en:Chapter 07
00:26:14.906 : en:Chapter 08
00:34:09.839 : en:Chapter 09
00:36:09.583 : en:Chapter 10
00:38:00.444 : en:Chapter 11
00:43:55.841 : en:Chapter 12
00:49:31.510 : en:Chapter 13
00:53:04.264 : en:Chapter 14
00:56:31.971 : en:Chapter 15
00:58:26.002 : en:Chapter 16
01:02:43.593 : en:Chapter 17
01:04:48.968 : en:Chapter 18
01:11:37.835 : en:Chapter 19
01:18:16.191 : en:Chapter 20
01:23:07.607 : en:Chapter 21
01:29:28.279 : en:Chapter 22
01:31:26.564 : en:Chapter 23
01:37:24.296 : en:Chapter 24
01:38:49.006 : en:Chapter 25
01:42:37.734 : en:Chapter 26
01:45:35.120 : en:Chapter 27
01:46:59.787 : en:Chapter 28
01:52:38.376 : en:Chapter 29
01:55:46.814 : en:Chapter 30
01:58:49.455 : en:Chapter 31
02:03:39.412 : en:Chapter 32
02:11:22.082 : en:Chapter 33

Знаете ли Вы, что...

Единственной сценой, снятой внутри казино Лас-Вегаса, стала самая первая сцена, где Номи играет на игровых автоматах.
Джо Эстерхас придумал имя Номи Малоун (Nomi Malone), соединив вместе прозвище своей жены - Номи (её настоящее имя Наоми) и фамилию Малоун (Malone), посчитав, что она созвучна со словом «одинокий» (alone).
Для съёмок танцевальных сцен Элизабет Беркли работала по шестнадцать часов в сутки на высоких каблуках.
Шарлиз Терон проходила пробы на роль Номи Малоун.
Шэрон Стоун пробовалась на роль Кристал Коннорс.
Джина Гершон отказалась воспроизвести известную сцену с перехлестом ног из «Основного инстинкта» (1992).
Дженни МакКарти проходила пробы на главную роль и практически получила ее, но в самый последний момент выяснилось, что она не умеет танцевать.
Пол Верховен и Джо Эстерхас планировали сделать продолжение фильма, в котором Номи отправлялась в Лос-Анджелес покорять Голливуд.
В отредактированной версии фильма для телевидения Пол Верховен указан в титрах, как Йен Йенсен.
Финола Хьюз проходила пробы на роль Кристал Коннорс.
Джо Эстерхас придумал сюжет фильма, находясь на отдыхе на Гавайях. Джо получил $2 миллиона в качестве аванса и еще $1,7 миллиона после того, как завершились съёмки.
Продюсеры хотели, чтобы Мадонна исполнила роль Кристал Коннерс, а Дрю Бэрримор сыграла Номи Малоун.
Впервые в истории премии «Золотая малина» режиссер фильма (Пол Верховен) лично посетил церемонию, чтобы получить награды в категории «Худший режиссер» и «Худший фильм».
После того как фильм провалился в прокате и получил семь «Золотых малин», студия «MGM/UA» попыталась повернуть подобную ситуацию в свою пользу, начав рекламировать фильм, как «культовое кино в полночь»: в газетах Лос-Анджелеса была размещена реклама ночных сеансов, где среди прочего упоминалось, что картина получила семь премий «Золотая малина». Несмотря на нестандартный подход, данная рекламная компания также не увенчалась успехом.
По состоянию на начало 2008 год «Шоугелз» удерживает рекорд фильма с рейтингом NC-17, вышедшего в наибольшем количестве кинотеатров - 1388.

Скриншоты



[Цитировать]



Показать сообщения:    

Текущее время: 04-Дек 09:13

Часовой пояс: UTC + 3


Вы не можете начинать темы
Вы не можете отвечать на сообщения
Вы не можете редактировать свои сообщения
Вы не можете удалять свои сообщения
Вы не можете голосовать в опросах
Вы не можете прикреплять файлы к сообщениям
Вы не можете скачивать файлы

!ВНИМАНИЕ!
Сайт не предоставляет электронные версии произведений, а занимается лишь коллекционированием и каталогизацией ссылок, присылаемых и публикуемых на форуме нашими читателями. Если вы являетесь правообладателем какого-либо представленного материала и не желаете, чтобы ссылка на него находилась в нашем каталоге, свяжитесь с нами, и мы незамедлительно удалим ее. Файлы для обмена на трекере предоставлены пользователями сайта, и администрация не несет ответственности за их содержание. Просьба не заливать файлы, защищенные авторскими правами, а также файлы нелегального содержания!