[ Today is free to download without increasing Download ]

DL-List and Torrent activity
Complete: [ 2 ]
Тайная жизнь домашних животных / The Secret Life of Pets
Информация о фильме
Название: Тайная жизнь домашних животных
Оригинальное название: The Secret Life of Pets
Год выпуска: 2016
Жанр: мультфильм, комедия, семейный
Режиссеры: Ярроу Чейни , Крис Рено
В ролях: Луис С.К. (Max, озвучка), Эрик Стоунстрит (Duke, озвучка), Кевин Харт (Snowball, озвучка), Дженни Слейт (Gidget, озвучка), Элли Кемпер (Katie, озвучка), Альберт Брукс (Tiberius, озвучка), Лэйк Белл (Chloe, озвучка), Дэна Карви (Pops, озвучка), Хэннибал Бёресс (Buddy, озвучка), Бобби Мойнахан (Mel, озвучка), Крис Рено (Norman, озвучка), Стив Куган (Ozone / Reginald, озвучка)
О фильме:
Что делают домашние животные пока хозяева пропадают на работе? С тоской смотрят в окно? Смиренно дремлют на коврике у двери? Как бы не так. Они ведут свою тайную жизнь.
Страна: Япония, США
Студия: Dentsu, Fuji Television Network Inc., Illumination Entertainment, Universal Pictures
Продолжительность: 01:26:25
Перевод: Профессиональный (полное дублирование) | Line
Формат: AVI
Качество: HDTVRip
Видео: XviD build 73, 656x352 (2.40:1), 23.970 fps, 1064 Kbps (0.154 bit/pixel)
Звук: 48.0 kHz, MP, 2/0 ch, 128 kbps
Субтитры: Корейские (на надписи)


Complete name : Tajnaja.Zhizhj.Domashnih.Zhivotnyh.2016.XviD.745Gb.HDTVRip.by.GeneralFilm.avi
Format : AVI
Format/Info : Audio Video Interleave
File size : 744 MiB
Duration : 1h 26mn
Overall bit rate : 1 204 Kbps
Writing application : VirtualDubMod | www.virtualdub-fr.org || (build 2550/release)
Writing library : VirtualDubMod build 2550/release
ID : 0
Format : MPEG-4 Visual
Format profile : Advanced Simple@L5
Format settings, BVOP : 1
Format settings, QPel : No
Format settings, GMC : No warppoints
Format settings, Matrix : Custom
Codec ID : XVID
Codec ID/Hint : XviD
Duration : 1h 26mn
Bit rate : 1 064 Kbps
Width : 656 pixels
Height : 352 pixels
Display aspect ratio : 1.85:1
Frame rate : 29.970 (29970/1000) fps
Color space : YUV
Chroma subsampling : 4:2:0
Bit depth : 8 bits
Scan type : Progressive
Compression mode : Lossy
Bits/(Pixel*Frame) : 0.154
Stream size : 658 MiB (88%)
Writing library : XviD 73
ID : 1
Format : MPEG Audio
Format version : Version 1
Format profile : Layer 3
Codec ID : 55
Codec ID/Hint : MP3
Duration : 1h 26mn
Bit rate mode : Constant
Bit rate : 128 Kbps
Channel(s) : 2 channels
Sampling rate : 48.0 KHz
Compression mode : Lossy
Stream size : 79.1 MiB (11%)
Alignment : Aligned on interleaves
Interleave, duration : 33 ms (1.00 video frame)
Interleave, preload duratio : 504 ms
Writing library : LAME3.99r
Encoding settings : -m s -V 4 -q 0 -lowpass 17 -b 128



Display posts:    

Current time is: 24-Oct 02:56

All times are UTC + 3

You cannot post new topics in this forum
You cannot reply to topics in this forum
You cannot edit your posts in this forum
You cannot delete your posts in this forum
You cannot vote in polls in this forum
You cannot attach files in this forum
You cannot download files in this forum

The site does not give electronic versions of products, and is engaged only in a collecting and cataloguing of the references sent and published at a forum by our readers. If you are the legal owner of any submitted material and do not wish that the reference to it was in our catalogue, contact us and we shall immediately remove her. Files for an exchange on tracker are given by users of a site, and the administration does not bear the responsibility for their maintenance. The request to not fill in the files protected by copyrights, and also files of the illegal maintenance!