[ Today is free to download without increasing Download ]

DL-List and Torrent activity
Мальчик А / Boy A«Who Decides Who Gets A Second Chance?» Страна: Великобритания
Производство: Cuba Pictures, Film Four Ltd.
Год выпуска: 2007
Жанр: Драма, мелодрама, криминал
Режиссёр: Джон Краули
В ролях: Эндрю Гарфилд, Питер Муллан, Шиван Финнеран, Элфи Оуэн, Виктория Брейзиер, Скай Беннетт, Мэделейн Ракиц-Плэтт, Джозеф Алтин, Дадли Брюис, Ли Саймондс
Перевод: Профессиональный (многоголосый, закадровый)
Субтитры: Отсутствуют
Описание: Джека только что выпустили из тюрьмы, в которой он провёл 14 лет — большую часть своей жизни: много лет назад Джек вместе с другим мальчиком убил девятилетнюю Анджелу Мильтон. Сейчас Джеку 24 года, у него нет семьи, дома, друзей. Ему некуда идти. У него есть только наставник Терри, который пытается помочь Джеку вернуться к нормальной жизни и забыть страшные события далёкого прошлого.

Качество: HDRip
Продолжительность: 01:46:12
Формат: AVI
Видео кодек: XviD
Аудио кодек: AC3
Видео: 720x400 (1.80:1), 23.976 fps, XviD build 47 ~1567 kbps avg, 0.23 bit/pixel
Аудио: 48 kHz, AC3 Dolby Digital, 3/2 (L,C,R,l,r) + LFE ch, ~384.00 kbps avg

Media Info

Complete name                  : D:\.....\Malchik.A.avi
Format                         : AVI
Format/Info                    : Audio Video Interleave
File size                      : 1.46 GiB
Duration                       : 1h 46mn
Overall bit rate               : 1 961 Kbps
Writing application            : VirtualDubMod (build 2540/release)
Writing library                : VirtualDubMod build 2540/release
ID                             : 0
Format                         : MPEG-4 Visual
Format profile                 : Advanced Simple@L5
Format settings, BVOP          : 3
Format settings, QPel          : No
Format settings, GMC           : No warppoints
Format settings, Matrix        : Default (H.263)
Codec ID                       : XVID
Codec ID/Hint                  : XviD
Duration                       : 1h 46mn
Bit rate                       : 1 568 Kbps
Width                          : 720 pixels
Height                         : 400 pixels
Display aspect ratio           : 16:9
Frame rate                     : 23.976 fps
Color space                    : YUV
Chroma subsampling             : 4:2:0
Bit depth                      : 8 bits
Scan type                      : Progressive
Compression mode               : Lossy
Bits/(Pixel*Frame)             : 0.227
Stream size                    : 1.16 GiB (80%)
Writing library                : XviD 1.2.0.dev47 (UTC 2006-11-01)
ID                             : 1
Format                         : AC-3
Format/Info                    : Audio Coding 3
Mode extension                 : CM (complete main)
Format settings, Endianness    : Big
Codec ID                       : 2000
Duration                       : 1h 46mn
Bit rate mode                  : Constant
Bit rate                       : 384 Kbps
Channel(s)                     : 6 channels
Channel positions              : Front: L C R, Side: L R, LFE
Sampling rate                  : 48.0 KHz
Bit depth                      : 16 bits
Compression mode               : Lossy
Delay relative to video        : 1s 300ms
Stream size                    : 292 MiB (20%)
Alignment                      : Split accross interleaves
Interleave, duration           : 42 ms (1.00 video frame)
Interleave, preload duration   : 500 ms


Last edited by SteaMkka on 2012-11-24 22:37; edited 1 time in total


хорошо оформил,молодец


Display posts:    

Current time is: 24-Oct 23:09

All times are UTC + 3

You cannot post new topics in this forum
You cannot reply to topics in this forum
You cannot edit your posts in this forum
You cannot delete your posts in this forum
You cannot vote in polls in this forum
You cannot attach files in this forum
You cannot download files in this forum

The site does not give electronic versions of products, and is engaged only in a collecting and cataloguing of the references sent and published at a forum by our readers. If you are the legal owner of any submitted material and do not wish that the reference to it was in our catalogue, contact us and we shall immediately remove her. Files for an exchange on tracker are given by users of a site, and the administration does not bear the responsibility for their maintenance. The request to not fill in the files protected by copyrights, and also files of the illegal maintenance!