[ Сегодня идет свободное скачивание без начисления Download ]


Статистика раздачи
Нет
 
   
 
Top  
 
 
Бабник 2 (1992) SATRip-AVC Информация о фильме
Название: Бабник 2
Год выхода: 1992
Жанр: комедия
Режиссер: Иван Щеголев, Максим Воронков
В ролях: Максим Воронков, Святослав Ушаков, Татьяна Васильева, Любовь Полищук, Алексей Жарков, Георгий Мартиросян, Габриэль Марьяни, Семен Фарада
О фильме:
Два молодых и небедных "бабника" решили встретить Новый Год с приключениями. Это им удается, причем на пути юных повес встречаются все новые и новые колоритные фигуры. Удивительно, как двум балбесам, организовавшим фирму по спутниковым антеннам, удалось привлечь в нее бывшего ученого, а ныне полубомжа и водоискателя скважин на дачных участках...

Страна: Россия
Студия: Максим
Продолжительность: 01:07:31
Перевод: Оригинал
Файл
Качество: SATRip-AVC
Видео: MPEG-4 AVC, 1401 Кбит/с, 640x476
Аудио: MP3, 2 ch, 128 Кбит/с

MI

General
Unique ID : 188293470963350111000280469459152826873 (0x8DA800DF38BFACC183E8268A908671F9)
Complete name : E:Babnik2.1992.AVC.ExKinoRay.mkv
Format : Matroska
Format version : Version 2
File size : 739 MiB
Duration : 1 h 7 min
Overall bit rate : 1 531 kb/s
Movie name : Babnik 2 1992 from ExKinoRay
Encoded date : UTC 2016-09-01 19:52:36
Writing application : mkvmerge v7.6.0 ('Garden of Dreams') 32bit built on Feb 11 2015 00:18:47
Writing library : libebml v1.3.1 + libmatroska v1.4.2
Video
ID : 1
Format : AVC
Format/Info : Advanced Video Codec
Format profile : High@L4.1
Format settings, CABAC : Yes
Format settings, ReFrames : 12 frames
Codec ID : V_MPEG4/ISO/AVC
Duration : 1 h 7 min
Bit rate : 1 401 kb/s
Width : 640 pixels
Height : 476 pixels
Display aspect ratio : 4:3
Frame rate mode : Constant
Frame rate : 25.000 FPS
Color space : YUV
Chroma subsampling : 4:2:0
Bit depth : 8 bits
Scan type : Progressive
Bits/(Pixel*Frame) : 0.184
Stream size : 663 MiB (90%)
Title : Enigma
Writing library : x264 core 144 r2525 40bb568
Encoding settings : cabac=1 / ref=12 / deblock=1:-2:-2 / analyse=0x3:0x113 / me=umh / subme=10 / psy=1 / psy_rd=1.04:0.12 / mixed_ref=1 / me_range=32 / chroma_me=1 / trellis=2 / 8x8dct=1 / cqm=0 / deadzone=21,11 / fast_pskip=0 / chroma_qp_offset=-3 / threads=12 / lookahead_threads=2 / sliced_threads=0 / nr=0 / decimate=0 / interlaced=0 / bluray_compat=0 / constrained_intra=0 / bframes=9 / b_pyramid=2 / b_adapt=2 / b_bias=0 / direct=3 / weightb=1 / open_gop=0 / weightp=2 / keyint=250 / keyint_min=25 / scenecut=40 / intra_refresh=0 / rc=2pass / mbtree=0 / bitrate=1401 / ratetol=1.0 / qcomp=0.60 / qpmin=0 / qpmax=51 / qpstep=4 / cplxblur=20.0 / qblur=0.5 / ip_ratio=1.40 / pb_ratio=1.30 / aq=1:1.00
Language : English
Default : Yes
Forced : No
Audio
ID : 2
Format : MPEG Audio
Format version : Version 1
Format profile : Layer 3
Codec ID : A_MPEG/L3
Codec ID/Hint : MP3
Duration : 1 h 7 min
Bit rate mode : Constant
Bit rate : 128 kb/s
Channel(s) : 2 channels
Sampling rate : 44.1 kHz
Compression mode : Lossy
Stream size : 61.8 MiB (8%)
Writing library : LAME3.99r
Encoding settings : -m s -V 4 -q 2 -lowpass 17 -b 128
Language : Russian
Default : Yes
Forced : No

Скриншоты

[Цитировать]



Показать сообщения:    

Текущее время: 09-Дек 03:03

Часовой пояс: UTC + 3


Вы не можете начинать темы
Вы не можете отвечать на сообщения
Вы не можете редактировать свои сообщения
Вы не можете удалять свои сообщения
Вы не можете голосовать в опросах
Вы не можете прикреплять файлы к сообщениям
Вы не можете скачивать файлы

!ВНИМАНИЕ!
Сайт не предоставляет электронные версии произведений, а занимается лишь коллекционированием и каталогизацией ссылок, присылаемых и публикуемых на форуме нашими читателями. Если вы являетесь правообладателем какого-либо представленного материала и не желаете, чтобы ссылка на него находилась в нашем каталоге, свяжитесь с нами, и мы незамедлительно удалим ее. Файлы для обмена на трекере предоставлены пользователями сайта, и администрация не несет ответственности за их содержание. Просьба не заливать файлы, защищенные авторскими правами, а также файлы нелегального содержания!