[ Сегодня идет свободное скачивание без начисления Download ]


Статистика раздачи
Нет
 
   
 
Top  
 
 
Горец 3: Чародей / Highlander III: The Sorcerer (1994) Информация о фильме
Название: Горец 3: Чародей
Оригинальное название: Highlander III: The Sorcerer
Год выпуска: 1994
Страна: Канада, Франция, Великобритания
Жанр: Фантастика, боевик
Продолжительность: 01:38:53
Перевод: Профессиональный (многоголосый закадровый)
Перевод: Профессиональный (многоголосый закадровый), НТВ
Перевод: Профессиональный (многоголосый закадровый), НЕВА 1
Перевод: Профессиональный (многоголосый закадровый), DVD Group
Перевод: Профессиональный (многоголосый закадровый), ОРТ
Перевод: Профессиональный (многоголосый закадровый), РЕН-ТВ
Перевод: Авторский (одноголосый закадровый), А. Кашкин
Cубтитры: Русские, английские
Режиссер: Эндрю Морахэн
В ролях: Кристофер Ламберт, Марио Ван Пиблз, Дебора Кара Ангер, Мако, Рауль Трухильо, Жан-Пьерр Перуссе, Мартин Неуфелд, Фредерик Й. Окимура, Дэниэл До, Габриэль Какон, Луи Бертиньяк, Майкл Джэйстон, Акира Иноэ, Дарси Лори, Дэвид Френсис, Лиза Вителло, Мэтт Холлэнд, Ричард Джутрас, Лиз МакРэй, Эмидио Мичетти, Андре Умански, Чарльз С. Дусе, Гарт Гилкер, Пол Хопкинс, Майкл МакГилл, Чип Чуипка, Патрик Фьерри, Клиффорд Де Спенсер, Джон Данн-Хилл, Власта Врана, Арон Тэйджер, Шина Ларкин, Роберт Осорес, Лоуренс Тсуджи, Джо ДеПол, Кристофер Хейердал, Бонни Мак, Мартин Кантин, Джейсон Кавал
Описание: Бессмертный воин Коннор Маклауд вновь вызван на поединок, на этот раз своим самым могущественным врагом, Колдуном Кейном, заточенным под мистической горой в Японии 300 лет назад и достигшим невероятной магической силы. Ничего не подозревающие археологи освобождают Кейна. Для того, чтобы править миром колдуну нужна магическая энергия, которую он сможет получить только убив Горца. Маклауд скрывается в родные горы Шотландии, чтобы подготовиться к решающей битве и выковать новый меч в старинной кузнице. Он встречает Алекс, ученую из музея Античной Истории. Много лет назад в другой жизни Алекс и Маклауд любили друг друга. Алекс пытается его поддержать, окончательно разгадав мистическое предназначение сражения Горца с Колдуном, которое может положить конец вечной войне.

Файл
Качество: BDRip 1080p
Формат: MKV
Видео кодек: H264
Аудио кодек: AC3
Видео: MPEG4 Video (H264), 1920x816, 23.976fps, 11.0 Mbps
Аудио #01: Русский: Dolby AC3, 48000 Hz, 6ch, 384 kbps - Многоголосый
Аудио #02: Русский: Dolby AC3, 48000 Hz, 6ch, 448 kbps - Многоголосый, НТВ
Аудио #03: Русский: Dolby AC3, 48000 Hz, 6ch, 448 kbps - Многоголосый, НЕВА 1
Аудио #04: Русский: Dolby AC3, 48000 Hz, 6ch, 384 kbps - Многоголосый, DVD Group
Аудио #05: Русский: Dolby AC3, 48000 Hz, 2ch, 192 kbps - Многоголосый, ОРТ
Аудио #06: Русский: Dolby AC3, 48000 Hz, 2ch, 192 kbps - Многоголосый, РЕН-ТВ
Аудио #07: Русский: Dolby AC3, 48000 Hz, 2ch, 192 kbps - Одноголосый, А. Кашкин
Аудио #08: Английский: Dolby AC3, 48000 Hz, 6ch, 448 kbps
Формат субтитров: softsub (SRT)
Сэмпл

MediaInfo:

General
Unique ID : 177803617400945936455516275998360187273 (0x85C3BB293112A15584B80F698D0DB189)
Complete name : F:DVDRipГорец 1-41994 Горец 3 Последнее измерение.mkv
Format : Matroska
Format version : Version 4 / Version 2
File size : 9.46 GiB
Duration : 1 h 38 min
Overall bit rate : 13.7 Mb/s
Movie name : 1994 Горец 3 Последнее измерение / renta23
Encoded date : UTC 2016-09-02 21:38:37
Writing application : mkvmerge v8.3.0 ('Over the Horizon') 64bit
Writing library : libebml v1.3.1 + libmatroska v1.4.2
Video
ID : 1
Format : AVC
Format/Info : Advanced Video Codec
Format profile : [email protected]
Format settings, CABAC : Yes
Format settings, ReFrames : 5 frames
Codec ID : V_MPEG4/ISO/AVC
Duration : 1 h 38 min
Bit rate : 11.0 Mb/s
Width : 1 920 pixels
Height : 816 pixels
Display aspect ratio : 2.35:1
Frame rate mode : Constant
Frame rate : 23.976 (24000/1001) FPS
Color space : YUV
Chroma subsampling : 4:2:0
Bit depth : 8 bits
Scan type : Progressive
Bits/(Pixel*Frame) : 0.293
Stream size : 7.60 GiB (80%)
Title : 1994 Горец 3 Последнее измерение
Writing library : x264 core 146 r2538 121396c
Encoding settings : cabac=1 / ref=5 / deblock=1:-1:-1 / analyse=0x3:0x133 / me=umh / subme=11 / psy=1 / psy_rd=1.07:0.20 / mixed_ref=1 / me_range=32 / chroma_me=1 / trellis=2 / 8x8dct=1 / cqm=0 / deadzone=21,11 / fast_pskip=0 / chroma_qp_offset=-3 / threads=12 / lookahead_threads=2 / sliced_threads=0 / nr=0 / decimate=1 / interlaced=0 / bluray_compat=0 / constrained_intra=0 / bframes=8 / b_pyramid=2 / b_adapt=2 / b_bias=0 / direct=3 / weightb=1 / open_gop=0 / weightp=2 / keyint=250 / keyint_min=23 / scenecut=40 / intra_refresh=0 / rc=2pass / mbtree=0 / bitrate=11000 / ratetol=1.0 / qcomp=0.60 / qpmin=0 / qpmax=69 / qpstep=4 / cplxblur=20.0 / qblur=0.5 / ip_ratio=1.40 / pb_ratio=1.30 / aq=2:1.00
Language : English
Default : Yes
Forced : No
Audio #1
ID : 2
Format : AC-3
Format/Info : Audio Coding 3
Mode extension : CM (complete main)
Format settings, Endianness : Big
Codec ID : A_AC3
Duration : 1 h 38 min
Bit rate mode : Constant
Bit rate : 384 kb/s
Channel(s) : 6 channels
Channel positions : Front: L C R, Side: L R, LFE
Sampling rate : 48.0 kHz
Frame rate : 31.250 FPS (1536 spf)
Compression mode : Lossy
Stream size : 271 MiB (3%)
Title : Многоголосый
Language : Russian
Default : Yes
Forced : No
Audio #2
ID : 3
Format : AC-3
Format/Info : Audio Coding 3
Mode extension : CM (complete main)
Format settings, Endianness : Big
Codec ID : A_AC3
Duration : 1 h 38 min
Bit rate mode : Constant
Bit rate : 448 kb/s
Channel(s) : 6 channels
Channel positions : Front: L C R, Side: L R, LFE
Sampling rate : 48.0 kHz
Frame rate : 31.250 FPS (1536 spf)
Compression mode : Lossy
Stream size : 317 MiB (3%)
Title : Многоголосый, НТВ
Language : Russian
Default : No
Forced : No
Audio #3
ID : 4
Format : AC-3
Format/Info : Audio Coding 3
Mode extension : CM (complete main)
Format settings, Endianness : Big
Codec ID : A_AC3
Duration : 1 h 38 min
Bit rate mode : Constant
Bit rate : 448 kb/s
Channel(s) : 6 channels
Channel positions : Front: L C R, Side: L R, LFE
Sampling rate : 48.0 kHz
Frame rate : 31.250 FPS (1536 spf)
Compression mode : Lossy
Stream size : 317 MiB (3%)
Title : Многоголосый, НЕВА 1
Language : Russian
Default : No
Forced : No
Audio #4
ID : 5
Format : AC-3
Format/Info : Audio Coding 3
Mode extension : CM (complete main)
Format settings, Endianness : Big
Codec ID : A_AC3
Duration : 1 h 38 min
Bit rate mode : Constant
Bit rate : 384 kb/s
Channel(s) : 6 channels
Channel positions : Front: L C R, Side: L R, LFE
Sampling rate : 48.0 kHz
Frame rate : 31.250 FPS (1536 spf)
Compression mode : Lossy
Stream size : 271 MiB (3%)
Title : Многоголосый, DVD Group
Language : Russian
Default : No
Forced : No
Audio #5
ID : 6
Format : AC-3
Format/Info : Audio Coding 3
Mode extension : CM (complete main)
Format settings, Endianness : Big
Codec ID : A_AC3
Duration : 1 h 38 min
Bit rate mode : Constant
Bit rate : 192 kb/s
Channel(s) : 2 channels
Channel positions : Front: L R
Sampling rate : 48.0 kHz
Frame rate : 31.250 FPS (1536 spf)
Compression mode : Lossy
Stream size : 136 MiB (1%)
Title : Многоголосый, ОРТ
Language : Russian
Default : No
Forced : No
Audio #6
ID : 7
Format : AC-3
Format/Info : Audio Coding 3
Mode extension : CM (complete main)
Format settings, Endianness : Big
Codec ID : A_AC3
Duration : 1 h 38 min
Bit rate mode : Constant
Bit rate : 192 kb/s
Channel(s) : 2 channels
Channel positions : Front: L R
Sampling rate : 48.0 kHz
Frame rate : 31.250 FPS (1536 spf)
Compression mode : Lossy
Stream size : 136 MiB (1%)
Title : Многоголосый, РЕН-ТВ
Language : Russian
Default : No
Forced : No
Audio #7
ID : 8
Format : AC-3
Format/Info : Audio Coding 3
Mode extension : CM (complete main)
Format settings, Endianness : Big
Codec ID : A_AC3
Duration : 1 h 38 min
Bit rate mode : Constant
Bit rate : 192 kb/s
Channel(s) : 2 channels
Channel positions : Front: L R
Sampling rate : 48.0 kHz
Frame rate : 31.250 FPS (1536 spf)
Compression mode : Lossy
Stream size : 136 MiB (1%)
Title : Одноголосый, А. Кашкин
Language : Russian
Default : No
Forced : No
Audio #8
ID : 9
Format : AC-3
Format/Info : Audio Coding 3
Mode extension : CM (complete main)
Format settings, Endianness : Big
Codec ID : A_AC3
Duration : 1 h 38 min
Bit rate mode : Constant
Bit rate : 448 kb/s
Channel(s) : 6 channels
Channel positions : Front: L C R, Side: L R, LFE
Sampling rate : 48.0 kHz
Frame rate : 31.250 FPS (1536 spf)
Compression mode : Lossy
Stream size : 317 MiB (3%)
Language : English
Default : No
Forced : No
Text #1
ID : 10
Format : UTF-8
Codec ID : S_TEXT/UTF8
Codec ID/Info : UTF-8 Plain Text
Duration : 1 h 13 min
Bit rate : 0 b/s
Count of elements : 9
Stream size : 357 Bytes (0%)
Title : Force
Language : Russian
Default : Yes
Forced : Yes
Text #2
ID : 11
Format : UTF-8
Codec ID : S_TEXT/UTF8
Codec ID/Info : UTF-8 Plain Text
Duration : 1 h 37 min
Bit rate : 37 b/s
Count of elements : 520
Stream size : 27.1 KiB (0%)
Language : Russian
Default : No
Forced : No
Text #3
ID : 12
Format : UTF-8
Codec ID : S_TEXT/UTF8
Codec ID/Info : UTF-8 Plain Text
Duration : 1 h 33 min
Bit rate : 33 b/s
Count of elements : 611
Stream size : 22.8 KiB (0%)
Language : English
Default : No
Forced : No
Menu
00:00:00.000 : en:Chapter 01
00:08:52.156 : en:Chapter 02
00:16:47.339 : en:Chapter 03
00:25:31.530 : en:Chapter 04
00:33:18.830 : en:Chapter 05
00:41:25.065 : en:Chapter 06
00:50:46.168 : en:Chapter 07
00:58:26.211 : en:Chapter 08
01:09:02.513 : en:Chapter 09
01:17:29.519 : en:Chapter 10
01:25:26.371 : en:Chapter 11
01:34:15.107 : en:Chapter 12

Скриншоты:


[Цитировать]



Показать сообщения:    

Текущее время: 05-Дек 05:34

Часовой пояс: UTC + 3


Вы не можете начинать темы
Вы не можете отвечать на сообщения
Вы не можете редактировать свои сообщения
Вы не можете удалять свои сообщения
Вы не можете голосовать в опросах
Вы не можете прикреплять файлы к сообщениям
Вы не можете скачивать файлы

!ВНИМАНИЕ!
Сайт не предоставляет электронные версии произведений, а занимается лишь коллекционированием и каталогизацией ссылок, присылаемых и публикуемых на форуме нашими читателями. Если вы являетесь правообладателем какого-либо представленного материала и не желаете, чтобы ссылка на него находилась в нашем каталоге, свяжитесь с нами, и мы незамедлительно удалим ее. Файлы для обмена на трекере предоставлены пользователями сайта, и администрация не несет ответственности за их содержание. Просьба не заливать файлы, защищенные авторскими правами, а также файлы нелегального содержания!