[ Сегодня идет свободное скачивание без начисления Download ]


Статистика раздачи
Нет
 
   
 
Top  
 
 
-Глаза дракона / Dragon Eyes (2012) BDRemux- Русское название: Глаза дракона
Оригинальное название: Dragon Eyes
Студия: After Dark Films, Dark Castle Entertainment, Silver Pictures
Страна: США
Год выпуска: 2012
Жанр: Боевик, Драма, Криминал
Описание фильма:
Новый Орлеан, наши дни. Как и любой другой процветающий мегаполис мира, — это город контрастов, где есть и блеск, и грязь, встречаются роскошные дворцы и нищенские трущобы, где есть место великим возможностям и невероятным шансам самореализации, а вместе с тем — рискованным случайностям и проблематичным ситуациям. Однако, существуют куда более острые проблемы в виде деятельности организованной преступности и гангстерских группировок, которые интенсивно наращивают свою массу и влияние, повсюду распространяя оружие и наркотики. Страшнее же этого может быть только коррумпированность представителей закона и продажность органов власти. Но даже там, где всё куплено и схвачено, найдутся смельчаки, у которых есть в планах сломать систему и выкорчевать всю гниль устоявшегося порядка вещей. И вот однажды, устав от творящегося беззакония и беспорядка, обычный человек, но бдительный гражданин, бросает вызов «элите» нечистых на руку полицейских и погрязших в коррупции служителей закона, матёрым гангстерам и всесильным заправилам криминального мира. Как оказалось, вступить в неравный бой — лишь капля в море по сравнению с тем, чему суждено случиться дальше…
Режиссер: Джон Хайамс / John Hayams
Актеры: Жан-Клод Ван Дамм, Питер Уэллер, Кунг Ле, Кристофер Ван Варенберг, Луис Да Силва мл., Кристал Мантекон, Моника Акоста, Эрик Браун, Эдди Роус, Дэнни Космо Хиггинботтом
Продолжительность: 01:27:47
Перевод: Профессиональный |многоголосый закадровый| R5 + Профессиональный |двухголосый закадровый НТВ+| + Любительский |двухголосый закадровый| Чип и Дейл
Оригинальная аудиодорожка: английский
Cубтитры: русские (автор - wildTH), русские (автор - 107miller), английские
Формат субтитров: softsub [SRT]


Рейтинг R - Детям до 17 лет обязательно присутствие родителей
Видеокодек: MPEG-4 AVC/H.264
Битрейт видео: ~26997 kbps
Размер кадра: 1920x1080p
Качество видео: BDRemux
Аудио 1: Русский AC3 / 2.0 / 48 kHz / 192 kbps / 16 bits | MVO
Аудио 2: Русский AC3 / 2.0 / 48 kHz / 192 kbps / 16 bits | НТВ+
Аудио 3: Русский AC3 / 2.0 / 48 kHz / 192 kbps / 16 bits | Чип и Дейл
Аудио 4: Английский DTS-HD Master Audio / 5.1 / 48 kHz / 2093 kbps / 16 bits (DTS Core: 5.1 / 48 kHz / 1510 kbps / 16 bits)Скриншоты:

MediaInfo:

General
Complete name : O:\Глаза дракона.2012.Blu-Ray.Remux.(1080p).mkv
Format : Matroska
File size : 18.1 GiB
Duration : 1h 27mn
Overall bit rate : 29.5 Mbps
Encoded date : UTC 2012-10-10 18:31:03
Writing application : mkvmerge v5.8.0 ('No Sleep / Pillow') built on Sep 2 2012 15:37:04
Writing library : libebml v1.2.3 + libmatroska v1.3.0
Video
ID : 1
Format : AVC
Format/Info : Advanced Video Codec
Format profile : High@L4.1
Format settings, CABAC : Yes
Format settings, ReFrames : 4 frames
Muxing mode : Container profile=Unknown@0.0
Codec ID : V_MPEG4/ISO/AVC
Duration : 1h 27mn
Width : 1 920 pixels
Height : 1 080 pixels
Display aspect ratio : 16:9
Frame rate : 25.000 fps
Resolution : 8 bits
Colorimetry : 4:2:0
Scan type : Progressive
Audio #1
ID : 2
Format : AC-3
Format/Info : Audio Coding 3
Codec ID : A_AC3
Duration : 1h 27mn
Bit rate mode : Constant
Bit rate : 192 Kbps
Channel(s) : 2 channels
Channel positions : L R
Sampling rate : 48.0 KHz
Stream size : 121 MiB (1%)
Title : MVO, R5
Language : Russian
Audio #2
ID : 3
Format : AC-3
Format/Info : Audio Coding 3
Codec ID : A_AC3
Duration : 1h 27mn
Bit rate mode : Constant
Bit rate : 192 Kbps
Channel(s) : 2 channels
Channel positions : L R
Sampling rate : 48.0 KHz
Stream size : 121 MiB (1%)
Title : НТВ+
Language : Russian
Audio #3
ID : 4
Format : AC-3
Format/Info : Audio Coding 3
Codec ID : A_AC3
Duration : 1h 27mn
Bit rate mode : Constant
Bit rate : 192 Kbps
Channel(s) : 2 channels
Channel positions : L R
Sampling rate : 48.0 KHz
Stream size : 121 MiB (1%)
Title : Чип и Дейл
Language : Russian
Audio #4
ID : 5
Format : DTS
Format/Info : Digital Theater Systems
Format profile : MA
Codec ID : A_DTS
Duration : 1h 27mn
Bit rate mode : Variable
Channel(s) : 6 channels
Channel positions : Front: L C R, Surround: L R, LFE
Sampling rate : 48.0 KHz
Resolution : 16 bits
Text #1
ID : 6
Format : UTF-8
Codec ID : S_TEXT/UTF8
Codec ID/Info : UTF-8 Plain Text
Title : wildTH
Language : Russian
Text #2
ID : 7
Format : UTF-8
Codec ID : S_TEXT/UTF8
Codec ID/Info : UTF-8 Plain Text
Title : 107miller
Language : Russian
Text #3
ID : 8
Format : UTF-8
Codec ID : S_TEXT/UTF8
Codec ID/Info : UTF-8 Plain Text
Menu
00:00:00.000 : :Chapter 01
00:06:31.800 : :Chapter 02
00:13:59.840 : :Chapter 03
00:21:06.320 : :Chapter 04
00:29:34.080 : :Chapter 05
00:37:40.840 : :Chapter 06
00:46:55.439 : :Chapter 07
00:54:35.920 : :Chapter 08
01:04:10.760 : :Chapter 09
01:09:30.640 : :Chapter 10
01:15:05.520 : :Chapter 11
01:23:52.880 : :Chapter 12
Время раздачи: 24/7 - круглосуточно
Спасибо - это прекрасное словo, но если Вам реально хочется меня отблагодарить, оставайтесь на раздаче как можно дольше, и тогда наша благодарность будет обоюдной!!!!

[Цитировать]



Показать сообщения:    

Текущее время: 08-Дек 19:11

Часовой пояс: UTC + 3


Вы не можете начинать темы
Вы не можете отвечать на сообщения
Вы не можете редактировать свои сообщения
Вы не можете удалять свои сообщения
Вы не можете голосовать в опросах
Вы не можете прикреплять файлы к сообщениям
Вы не можете скачивать файлы

!ВНИМАНИЕ!
Сайт не предоставляет электронные версии произведений, а занимается лишь коллекционированием и каталогизацией ссылок, присылаемых и публикуемых на форуме нашими читателями. Если вы являетесь правообладателем какого-либо представленного материала и не желаете, чтобы ссылка на него находилась в нашем каталоге, свяжитесь с нами, и мы незамедлительно удалим ее. Файлы для обмена на трекере предоставлены пользователями сайта, и администрация не несет ответственности за их содержание. Просьба не заливать файлы, защищенные авторскими правами, а также файлы нелегального содержания!