[ Сегодня идет свободное скачивание без начисления Download ]


Статистика раздачи
Нет
 
   
 
Top  
 
 
Дрянные девчонки 2 / Mean Girls 2«The plastics are back!»
Год выпуска: 2011
Страна: США
Производство: Paramount Famous Productions
Жанр: Комедия
Режиссер: Мелани Мейрон
В ролях: Миган Йетте Мартин, Дженнифер Стоун, Майра Уолш, Диего Гонзалез, Николь Гэйл Андерсон, Клер Холт, Линден Эшби, Тим Медоуз, Татум Этеридж, Рода Гриффис
Перевод: Профессиональный (многоголосый, закадровый)
Субтитры: Отсутствуют
Описание: В этот раз речь пойдет об Эбби — богатой, но не популярной в школе и Джо — не богатой, но смелой. После очередной пакости Мэнди — «пластиковой» королевы Джо подвозит Эбби домой и сталкивается там с отцом Эбби, который предлагает оплатить учебы девушки за дружбу с его дочкой. «Кому от этого будет плохо?» — подумала Джо и тут понеслась… Пакости, сплетни, интриги и многое другое, как у первых дрянных девчонок и даже гораздо лучше!
[kp]542567[/kp] [imdb]tt1679235[/imdb]
Качество: DVDRip
Продолжительность: 01:32:48
Формат: AVI
Видео кодек: XviD
Аудио кодек: MP3
Видео: 656x368 (16:9), 25 fps, XviD build ~986 kbps avg, 0.163 bit/pixel
Аудио: 48 kHz, MPEG Layer 3, 2 ch, ~128.00 kbps avg
Премьера (мир): 23 января 2011

Media Info

Видео
Идентификатор                            : 0
Формат                                   : MPEG-4 Visual
Профиль формата                          : Advanced [email protected]
Параметр BVOP формата                    : 2
Параметр QPel формата                    : Нет
Параметр GMC формата                     : Без точки перехода
Параметр матрицы формата                 : Выборочная
Идентификатор кодека                     : XVID
Идентификатор кодека/Подсказка           : XviD
Продолжительность                        : 1 ч. 32 м.
Битрейт                                  : 986 Кбит/сек
Ширина                                   : 656 пикселей
Высота                                   : 368 пикселей
Соотношение сторон                       : 16:9
Частота кадров                           : 25,000 кадров/сек
Цветовое пространство                    : YUV
Субдискретизация насыщенности            : 4:2:0
Битовая глубина                          : 8 бит
Тип развёртки                            : Прогрессивная
Метод сжатия                             : С потерями
Бит/(Пиксели*Кадры)                      : 0.163
Размер потока                            : 654 Мбайт (88%)
Библиотека кодирования                   : XviD 1.2.1 (UTC 2008-12-04)
Аудио
Идентификатор                            : 1
Формат                                   : MPEG Audio
Версия формата                           : Version 1
Профиль формата                          : Layer 3
Режим                                    : Joint stereo
Идентификатор кодека                     : 55
Идентификатор кодека/Подсказка           : MP3
Продолжительность                        : 1 ч. 32 м.
Вид битрейта                             : Постоянный
Битрейт                                  : 128 Кбит/сек
Каналы                                   : 2 канала
Частота                                  : 48,0 КГц
Метод сжатия                             : С потерями
Размер потока                            : 84,8 Мбайт (11%)
Выравнивание                             : Соединение по промежуткам
Продолжительность промежутка             : 40  мс. (1,00 видеокадр)
Время предзагрузки промежутка            : 504  мс.
Библиотека кодирования                   : LAME3.99r
Настройки программы                      : -m j -V 4 -q 3 -lowpass 17 -b 128-m j -V 4 -q 3 -lowpass 17 -b 128-m j -V 4 -q 3 -lowpass 17 -b 128

Скриншоты



[Цитировать]



Показать сообщения:    

Текущее время: 05-Дек 01:27

Часовой пояс: UTC + 3


Вы не можете начинать темы
Вы не можете отвечать на сообщения
Вы не можете редактировать свои сообщения
Вы не можете удалять свои сообщения
Вы не можете голосовать в опросах
Вы не можете прикреплять файлы к сообщениям
Вы не можете скачивать файлы

!ВНИМАНИЕ!
Сайт не предоставляет электронные версии произведений, а занимается лишь коллекционированием и каталогизацией ссылок, присылаемых и публикуемых на форуме нашими читателями. Если вы являетесь правообладателем какого-либо представленного материала и не желаете, чтобы ссылка на него находилась в нашем каталоге, свяжитесь с нами, и мы незамедлительно удалим ее. Файлы для обмена на трекере предоставлены пользователями сайта, и администрация не несет ответственности за их содержание. Просьба не заливать файлы, защищенные авторскими правами, а также файлы нелегального содержания!