[ Сегодня идет свободное скачивание без начисления Download ]


Статистика раздачи
Нет
 
   
 
Top  
 
 
-Сейчас самое время / Now Is Good (2012) BDRip- Русское название: Сейчас самое время
Оригинальное название: Now Is Good
Год выпуска: 2012
Производство: Великобритания
Жанр: Мелодрама
Перевод: Дублированный [Лицензия]
Субтитры: Вшитые отключаемые
Язык субтитров: Русский
Режиссер: Ол Паркер
Актеры: Дакота Фаннинг, Джереми Ирвин, Пэдди Консидайн, Оливия Уильямс, Кая Скоделарио, Роуз Лесли, Сара Хэдлэнд, Джо Коул, Рэки Айола, Патрик Балади
Описание фильма:
Тессе семнадцать, и она хочет жить нормальной жизнью. Она мечтает о тех же вещах, что и все подростки. Но что делать, если времени осталось мало? Тесса принимает решение, прожить все, что отмерено, так, чтобы ни одна минута не пропала зря. Девушка составляет список того, что обязательно нужно успеть: потерять невинность, попробовать наркотики, прыгнуть с парашютом, по-настоящему полюбить. Она шаг за шагом воплощает свои намерения. Но внезапно вспыхнувшее чувство к соседскому парню Адаму меняет все ее планы.

Дата мировой премьеры: 31 августа 2012
Дата российской премьеры: 13 декабря 2012, «Премиум Фильм»
Дата выхода DVD/Blu-Ray релиза: 24 января 2013, «CP Дистрибуция»
Продолжительность: 01:42:45
Качество видео: BDRip [1080p]
Видеокодек: MPEG-4 AVC/H.264
Видео: 1920x804, ~11.0 Мбит/с
Аудио 1: DTS, 6 ch, 1510 Кбит/с [Дублированный, Русский]
Аудио 2: DTS, 6 ch, 1510 Кбит/с [Оригинал, Английский]

MediaInfo:

Общее
Уникальный идентификатор : 217329121061256581617868817232000918652 (0xA38010F2BD8553C1ADB62602914B247C)
Полное имя : Now.Is.Good.2012.BDRip.1080p.mkv
Формат : Matroska
Версия формата : Version 2
Размер файла : 10,1 Гбайт
Продолжительность : 1 ч. 42 м.
Общий поток : 14,0 Мбит/сек
Название фильма : HDCLUB present "Now Is Good (2012)"
Дата кодирования : UTC 2013-01-22 16:44:58
Программа кодирования : mkvmerge v5.8.0 ('No Sleep / Pillow') built on Sep 2 2012 15:37:04
Библиотека кодирования : libebml v1.2.3 + libmatroska v1.3.0
Видео
Идентификатор : 1
Формат : AVC
Формат/Информация : Advanced Video Codec
Профиль формата : High@L4.1
Параметр CABAC формата : Да
Параметр ReFrames формата : 5 кадров
Идентификатор кодека : V_MPEG4/ISO/AVC
Продолжительность : 1 ч. 42 м.
Битрейт : 11,0 Мбит/сек
Ширина : 1920 пикселей
Высота : 804 пикселя
Соотношение сторон : 2,40:1
Частота кадров : 24,000 кадра/сек
Цветовое пространство : YUV
Субдискретизация насыщенности : 4:2:0
Битовая глубина : 8 бит
Тип развёртки : Прогрессивная
Бит/(Пиксели*Кадры) : 0.297
Размер потока : 7,69 Гбайт (76%)
Заголовок : Now.Is.Good.2012.1080p.Bluray.Rus.Eng.HDCLUB
Библиотека кодирования : x264 core 129 r2245 bc13772
Настройки программы : cabac=1 / ref=5 / deblock=1:-3:-3 / analyse=0x3:0x133 / me=umh / subme=11 / psy=1 / psy_rd=1.05:0.00 / mixed_ref=1 / me_range=48 / chroma_me=1 / trellis=2 / 8x8dct=1 / cqm=0 / deadzone=21,11 / fast_pskip=0 / chroma_qp_offset=-2 / threads=12 / lookahead_threads=2 / sliced_threads=0 / nr=0 / decimate=1 / interlaced=0 / bluray_compat=0 / constrained_intra=0 / bframes=7 / b_pyramid=2 / b_adapt=2 / b_bias=0 / direct=3 / weightb=1 / open_gop=0 / weightp=2 / keyint=250 / keyint_min=23 / scenecut=40 / intra_refresh=0 / rc_lookahead=60 / rc=2pass / mbtree=0 / bitrate=11000 / ratetol=1.0 / qcomp=0.60 / qpmin=0 / qpmax=69 / qpstep=4 / cplxblur=20.0 / qblur=0.5 / vbv_maxrate=50000 / vbv_bufsize=62500 / nal_hrd=none / ip_ratio=1.40 / pb_ratio=1.30 / aq=1:0.80
Язык : English
Default : Да
Forced : Да
Аудио #1
Идентификатор : 2
Формат : DTS
Формат/Информация : Digital Theater Systems
Идентификатор кодека : A_DTS
Продолжительность : 1 ч. 42 м.
Вид битрейта : Постоянный
Битрейт : 1510 Кбит/сек
Каналы : 6 каналов
Расположение каналов : Front: L C R, Side: L R, LFE
Частота : 48,0 КГц
Битовая глубина : 16 бит
Метод сжатия : С потерями
Размер потока : 1,08 Гбайт (11%)
Заголовок : DTS 5.1 @ 1509 kbps - Dubbed [BD RUS]
Язык : Russian
Default : Да
Forced : Да
Аудио #2
Идентификатор : 3
Формат : DTS
Формат/Информация : Digital Theater Systems
Идентификатор кодека : A_DTS
Продолжительность : 1 ч. 42 м.
Вид битрейта : Постоянный
Битрейт : 1510 Кбит/сек
Каналы : 6 каналов
Расположение каналов : Front: L C R, Side: L R, LFE
Частота : 48,0 КГц
Битовая глубина : 16 бит
Метод сжатия : С потерями
Размер потока : 1,08 Гбайт (11%)
Заголовок : DTS 5.1 @ 1509 kbps - Original [BD RUS]
Язык : English
Default : Нет
Forced : Нет
Текст
Идентификатор : 4
Формат : UTF-8
Идентификатор кодека : S_TEXT/UTF8
Идентификатор кодека/Информация : UTF-8 Plain Text
Заголовок : full [BD RUS]
Язык : Russian
Default : Нет
Forced : Нет
Меню
00:00:00.000 : en:Chapter 00
00:10:30.333 : en:Chapter 01
00:17:27.416 : en:Chapter 02
00:23:41.583 : en:Chapter 03
00:30:31.541 : en:Chapter 04
00:37:38.458 : en:Chapter 05
00:44:25.750 : en:Chapter 06
00:53:31.833 : en:Chapter 07
01:02:39.291 : en:Chapter 08
01:12:49.416 : en:Chapter 09
01:20:58.458 : en:Chapter 10
01:30:44.125 : en:Chapter 11
Скриншоты:


Время раздачи: Обычно с 19:00 до 00:00

[Цитировать]

Топик был перенесен из форума Новинки кинопроката (HD Video) в форум Зарубежное кино (HD Video)
Bootch



Показать сообщения:    

Текущее время: 08-Дек 19:07

Часовой пояс: UTC + 3


Вы не можете начинать темы
Вы не можете отвечать на сообщения
Вы не можете редактировать свои сообщения
Вы не можете удалять свои сообщения
Вы не можете голосовать в опросах
Вы не можете прикреплять файлы к сообщениям
Вы не можете скачивать файлы

!ВНИМАНИЕ!
Сайт не предоставляет электронные версии произведений, а занимается лишь коллекционированием и каталогизацией ссылок, присылаемых и публикуемых на форуме нашими читателями. Если вы являетесь правообладателем какого-либо представленного материала и не желаете, чтобы ссылка на него находилась в нашем каталоге, свяжитесь с нами, и мы незамедлительно удалим ее. Файлы для обмена на трекере предоставлены пользователями сайта, и администрация не несет ответственности за их содержание. Просьба не заливать файлы, защищенные авторскими правами, а также файлы нелегального содержания!