[ Сегодня идет свободное скачивание без начисления Download ]


Статистика раздачи
Нет
 
   
 
Top  
 
 
-Марьина роща (1-16 серии из 16) (2012) DVB- Оригинальное название: Марьина роща
Год выпуска: 2012
Страна: Россия / "Мостелефильм" по заказу телеканала Россия 1
Жанр: драма, детектив, история-
Премьера (РФ): 14 января 2013 (Россия 1)
Режиссер: Александр Хван
Актеры: Александр Домогаров, Евгения Крюкова, Виталий Кудрявцев, Сергей Комаров, Савва Гусев, Елена Доронина, Яна Львова, Наталья Литвинова, Виктор Тереля, Дмитрий Смирнов, Артем Лысков, Виталий Горшков, Виктор Маркин, Олег Алмазов, Сергей Потапов, Юрий Шлыков, Борис Романов, Константин Желдин, Петр Зайченко, Ольга Науменко, Татьяна Мухина, Егор Баринов, Людмила Давыдова, Ирина Гордина, Полина Лунегова, Татьяна Чернопятова, Алексей Михайлов, Ксения Баринова, Игорь Филиппов, Дмитрий Гусев, Евгений Харланов, Михаил Горский, Анастасия Платонова, Сергей Дьячков, Константин Глушков, Михаил Солодко, Максим Макаров, Игорь Огурцов
Описание фильма: Вернувшись после победы с фронта оперативник МУРА Константин Трошин узнает, что там он больше не работает. А причина — в конфликте с влиятельным генералом НКГБ. Но Трошин не намерен отступать, так как без работы в органах жизнь его теряет всякий смысл. Он устраивается на работу в самом неблагополучном районе Москвы — Марьиной Роще. И там же из-зи личных проблем поселиться жить в коммуналке. Таким образом, Трошин оказался в самом центре криминальной среды. Он тесно сходится с ее обитателями. И, может быть, из-за этого ему удается раскрывать самые дерзкие и хладнокровные преступления. Убийства, налеты и аферы — здесь не в новинку. Но Трошин хочет идти дальше и искоренить преступление как таковое. А люди в ответ на его желание идут к нему, как третейскому судье, они доверяют ему, когда надо отделять добро от зла...-Продолжительность: серия ~ 00:44
Качество видео: DVB
Видеокодек: MPEG2
Битрейт видео: ~5350 kbps avg
Размер кадра: 720x576 (4:3), 25.000 fps
Аудиокодек: MPEG Audio Layer 2
Аудио: 48 kHz, 2 ch, ~256 kbps avg
Субтитры: отсутствуют

MediaInfo:

Формат : MPEG-PS
Размер файла : 1,76 Гбайт
Продолжительность : 44 м.
Режим общего битрейта : Переменный
Общий поток : 5719 Кбит/сек
Библиотека кодирования : (c) 1998-2012 Womble Multimedia, Inc. / MPEG Video Wizard DVD 5.0.1.100
Видео
Идентификатор : 224 (0xE0)
Формат : MPEG Video
Версия формата : Version 2
Профиль формата : Main@Main
Параметр BVOP формата : Да
Параметр матрицы формата : Выборочная
Параметр GOP формата : M=3, N=15
Продолжительность : 44 м.
Вид битрейта : Переменный
Битрейт : 5349 Кбит/сек
Максимальный битрейт : 15,0 Мбит/сек
Ширина : 720 пикселей
Высота : 576 пикселей
Соотношение сторон : 4:3
Частота кадров : 25,000 кадров/сек
Стандарт вещания : PAL
Цветовое пространство : YUV
Субдискретизация насыщенности : 4:2:0
Битовая глубина : 8 бит
Тип развёртки : Чересстрочная
Порядок развёртки : Верхнее поле первое
Метод сжатия : С потерями
Бит/(Пиксели*Кадры) : 0.516
Размер потока : 1,65 Гбайт (94%)
Аудио
Идентификатор : 192 (0xC0)
Формат : MPEG Audio
Версия формата : Version 1
Профиль формата : Layer 2
Продолжительность : 44 м.
Вид битрейта : Постоянный
Битрейт : 256 Кбит/сек
Каналы : 2 канала
Частота : 48,0 КГц
Метод сжатия : С потерями
Размер потока : 80,6 Мбайт (4%)
Скриншоты:
Марьина роща [1-16 серия из 16] (2012) SATRipВремя раздачи: 24/7

[Цитировать]



Показать сообщения:    

Текущее время: 11-Дек 16:45

Часовой пояс: UTC + 3


Вы не можете начинать темы
Вы не можете отвечать на сообщения
Вы не можете редактировать свои сообщения
Вы не можете удалять свои сообщения
Вы не можете голосовать в опросах
Вы не можете прикреплять файлы к сообщениям
Вы не можете скачивать файлы

!ВНИМАНИЕ!
Сайт не предоставляет электронные версии произведений, а занимается лишь коллекционированием и каталогизацией ссылок, присылаемых и публикуемых на форуме нашими читателями. Если вы являетесь правообладателем какого-либо представленного материала и не желаете, чтобы ссылка на него находилась в нашем каталоге, свяжитесь с нами, и мы незамедлительно удалим ее. Файлы для обмена на трекере предоставлены пользователями сайта, и администрация не несет ответственности за их содержание. Просьба не заливать файлы, защищенные авторскими правами, а также файлы нелегального содержания!