[ Сегодня идет свободное скачивание без начисления Download ]


Статистика раздачи
Скачал: [ 1 ]
 
   
 
Top  
 
 
Карнавальная ночь (1956) Год выпуска: 1956
Страна: СССР
Студии: Мосфильм
Жанр: мюзикл, мелодрама, комедия
Продолжительность: 01:15:31
Субтитры: русский
Режиссер: Эльдар Рязанов
В ролях:
Игорь Ильинский, Людмила Гурченко, Юрий Белов, Тамара Носова, Георгий Куликов, Сергей Филиппов, Ольга Власова, Андрей Тутышкин, Геннадий Юдин, Владимир Зельдин, Борис Петкер...
Описание:
Едва появившись, этот фильм был тут же "разобран" на цитаты... И сегодня, по прошествии пяти десятилетий, он остаётся одной из самых знаменитых и любимых зрителями новогодних кинокомедий.
"Карнавальная ночь" открыла миру талант юной Людмилы Гурченко и начинающего режиссёра Эльдара Рязанова, которому суждено было стать "классиком" комедийного жанра.
Команда молодых работников клуба готовится к встрече Нового года. Они задумывают провести интересный и веселый праздник, но, на беду ребят, их берется контролировать директор клуба Огурцов — бюрократ, буквоед и чинуша. Собрав всех в своем кабинете, он подробно рассказывает о «своем видении» того, как правильно и полезно провести новогоднюю ночь. Организаторы понимают, что Огурцов собирается вместо праздника преподнести гостям клуба некий коктейль из смотра художественной самодеятельности и партсобрания. И тогда молодежь решает хитростью обойти недалекого начальника, чтобы организовать настоящий новогодний бал.- -Исходник: BDRemux
Тип релиза:BDRip-AVC
Контейнер: MKV
Видео: 784x576 (1,370:1), 23,976 fps, H264 ~ 1615 kbps avg, 0.149 bit/pixel
Аудио: 48 kHz, Dolby Digital AC3, 5.1 ch, 448.00 kbps
Оригинальная навигация по главам: есть

MediaInfo

Общее
Полное имя : Karnavalnaya.noch.1956.BDRip-AVC_[New-team]_by_AVP_Studio.mkv
Формат : Matroska
Версия формата : Version 4 / Version 2
Размер файла : 1,09 Гбайт
Продолжительность : 1 ч. 15 м.
Общий поток : 2066 Кбит/сек
Название фильма : Карнавальная ночь от AVP Studio BDRip 1080p
Дата кодирования : UTC 2016-09-03 20:09:01
Программа кодирования : mkvmerge v9.3.1 ('Mask Machine') 64bit
Библиотека кодирования : libebml v1.3.4 + libmatroska v1.4.5
Обложка : Yes
Attachments : cover.jpg
Видео
Идентификатор : 1
Формат : AVC
Формат/Информация : Advanced Video Codec
Профиль формата : High@L4.1
Параметр CABAC формата : Да
Параметр ReFrames формата : 10 кадров
Идентификатор кодека : V_MPEG4/ISO/AVC
Продолжительность : 1 ч. 15 м.
Битрейт : 1615 Кбит/сек
Ширина : 784 пикселя
Высота : 576 пикселей
Соотношение сторон : 4:3
Режим частоты кадров : Постоянный
Частота кадров : 23,976 (24000/1001) кадра/сек
Цветовое пространство : YUV
Субдискретизация насыщенности : 4:2:0
Битовая глубина : 8 бит
Тип развёртки : Прогрессивная
Бит/(Пиксели*Кадры) : 0.149
Размер потока : 873 Мбайт (78%)
Заголовок : Источник BDRemux
Библиотека кодирования : x264 core 148 r2597 e86f3a1
Настройки программы : cabac=1 / ref=10 / deblock=1:-3:-2 / analyse=0x3:0x113 / me=umh / subme=10 / psy=1 / psy_rd=1.00:0.00 / mixed_ref=1 / me_range=32 / chroma_me=1 / trellis=2 / 8x8dct=1 / cqm=0 / deadzone=21,11 / fast_pskip=1 / chroma_qp_offset=-2 / threads=6 / lookahead_threads=1 / sliced_threads=0 / nr=0 / decimate=0 / interlaced=0 / bluray_compat=0 / constrained_intra=0 / bframes=8 / b_pyramid=2 / b_adapt=2 / b_bias=0 / direct=3 / weightb=1 / open_gop=0 / weightp=2 / keyint=250 / keyint_min=25 / scenecut=40 / intra_refresh=0 / rc_lookahead=40 / rc=2pass / mbtree=1 / bitrate=1615 / ratetol=1.0 / qcomp=0.60 / qpmin=0 / qpmax=69 / qpstep=4 / cplxblur=20.0 / qblur=0.5 / ip_ratio=1.40 / aq=1:1.00
Язык : Russian
Default : Да
Forced : Нет
Аудио
Идентификатор : 2
Формат : AC-3
Формат/Информация : Audio Coding 3
Расширение режима : CM (complete main)
Параметр Endianness формата : Big
Идентификатор кодека : A_AC3
Продолжительность : 1 ч. 15 м.
Вид битрейта : Постоянный
Битрейт : 448 Кбит/сек
Каналы : 6 каналов
Расположение каналов : Front: L C R, Side: L R, LFE
Частота : 48,0 КГц
Частота кадров : 31,250 кадров/сек (1536 spf)
Метод сжатия : С потерями
Размер потока : 242 Мбайт (22%)
Заголовок : Источник BDRemux
Язык : Russian
Default : Да
Forced : Нет
Меню
00:00:00.000 : :Chapter 01
00:06:20.380 : :Chapter 02
00:15:02.109 : :Chapter 03
00:22:14.624 : :Chapter 04
00:29:50.371 : :Chapter 05
00:33:37.682 : :Chapter 06
00:40:10.408 : :Chapter 07
00:47:34.852 : :Chapter 08
00:54:18.171 : :Chapter 09
01:00:56.611 : :Chapter 10
01:07:08.274 : :Chapter 11
01:11:04.760 : :Chapter 12

Скриншоты

[Цитировать]



Показать сообщения:    

Текущее время: 24-Апр 03:47

Часовой пояс: UTC + 6


Вы не можете начинать темы
Вы не можете отвечать на сообщения
Вы не можете редактировать свои сообщения
Вы не можете удалять свои сообщения
Вы не можете голосовать в опросах
Вы не можете прикреплять файлы к сообщениям
Вы не можете скачивать файлы

!ВНИМАНИЕ!
Сайт не предоставляет электронные версии произведений, а занимается лишь коллекционированием и каталогизацией ссылок, присылаемых и публикуемых на форуме нашими читателями. Если вы являетесь правообладателем какого-либо представленного материала и не желаете, чтобы ссылка на него находилась в нашем каталоге, свяжитесь с нами, и мы незамедлительно удалим ее. Файлы для обмена на трекере предоставлены пользователями сайта, и администрация не несет ответственности за их содержание. Просьба не заливать файлы, защищенные авторскими правами, а также файлы нелегального содержания!