[ Сегодня идет свободное скачивание без начисления Download ]


Статистика раздачи
Скачал: [ 1 ]
 
   
 
Top  
 
 
Сто лет прощения / Cien anos de perdon (2016) BDRip - Производство: Испания, Франция, Аргентина
Жанр: Семейный, Криминал
Режиссер: Даниэль Кальпарсоро
Актеры: Луис Тосар, Родриго Де ла Серна, Рауль Аревало, Хосе Коронадо, Патриция Вико, Хоакин Фуррьель, Лусиано Касерес, Мариан Альварес
Описание:
Ранним дождливым утром шесть переодетых и вооруженных мужчин совершают нападение на банк в Валенсии. Группа во главе с вором по кличке Уругваец имеет, казалось бы четкую миссию: очистить наибольшее количество сейфов и выкопать через один из офисов банка туннель к заброшенной линии метро. Но детали этого ограбления приводят в движение в элиту власти, и тогда Ферран, начальник штаба президента, открывает для себя странный сюрприз…

Возраст: 16+ (зрителям, достигшим 16 лет)
Рейтинг MPAA: R (лицам до 17 лет обязательно присутствие взрослого)
Дата мировой премьеры: 3 марта 2016
Продолжительность: 01:37:00
Качество видео: BDRip СЭМПЛ
Перевод: Одноголосый закадровый, любительский
Вид субтитров: Вшитые, отключаемые
Язык субтитров: Английский, Испанский
Видео: AVC/H.264, 1920x804, ~12 Mbps
Аудио 01: AC3, 2 ch, 192 Kbps - Русский
Аудио 02: DTS-HD MA, 6 ch, 1877 Kbps - Испанский

Mediainfo:

Format                                   : Matroska
Format version                           : Version 4 / Version 2
File size                                : 9.55 GiB
Duration                                 : 1 h 37 min
Overall bit rate                         : 14.1 Mb/s
Movie name                               : Cien Años de Perdon
Encoded date                             : UTC 2016-09-04 09:45:12
Writing application                      : mkvmerge v9.4.0 ('Knurl') 64bit
Writing library                          : libebml v1.3.4 + libmatroska v1.4.5
Video
ID                                       : 1
Format                                   : AVC
Format/Info                              : Advanced Video Codec
Format profile                           : [url=mailto:High@L4.1]High@L4.1[/url]
Format settings, CABAC                   : Yes
Format settings, ReFrames                : 4 frames
Codec ID                                 : V_MPEG4/ISO/AVC
Duration                                 : 1 h 36 min
Bit rate                                 : 12.0 Mb/s
Width                                    : 1 920 pixels
Height                                   : 804 pixels
Display aspect ratio                     : 2.40:1
Frame rate mode                          : Constant
Frame rate                               : 24.000 FPS
Color space                              : YUV
Chroma subsampling                       : 4:2:0
Bit depth                                : 8 bits
Scan type                                : Progressive
Bits/(Pixel*Frame)                       : 0.324
Stream size                              : 8.13 GiB (85%)
Writing library                          : x264 core 142 r2479 dd79a61
Encoding settings                        : cabac=1 / ref=1 / deblock=1:-3:-3 / analyse=0x3:0x113 / me=hex / subme=2 / psy=1 / psy_rd=1.00:0.15 / mixed_ref=0 / me_range=16 / chroma_me=1 / trellis=0 / 8x8dct=1 / cqm=0 / deadzone=21,11 / fast_pskip=1 / chroma_qp_offset=0 / threads=48 / lookahead_threads=6 / sliced_threads=0 / nr=0 / decimate=1 / interlaced=0 / bluray_compat=0 / constrained_intra=0 / bframes=3 / b_pyramid=2 / b_adapt=1 / b_bias=0 / direct=1 / weightb=1 / open_gop=0 / weightp=1 / keyint=240 / keyint_min=24 / scenecut=40 / intra_refresh=0 / rc_lookahead=10 / rc=2pass / mbtree=1 / bitrate=12000 / ratetol=1.0 / qcomp=0.60 / qpmin=0 / qpmax=69 / qpstep=4 / cplxblur=20.0 / qblur=0.5 / vbv_maxrate=62500 / vbv_bufsize=78125 / nal_hrd=none / filler=0 / ip_ratio=1.40 / aq=1:1.00
Default                                  : Yes
Forced                                   : No
Color range                              : Limited
Color primaries                          : BT.709
Transfer characteristics                 : BT.709
Matrix coefficients                      : BT.709
Audio #1
ID                                       : 2
Format                                   : AC-3
Format/Info                              : Audio Coding 3
Mode extension                           : CM (complete main)
Format settings, Endianness              : Big
Codec ID                                 : A_AC3
Duration                                 : 1 h 36 min
Bit rate mode                            : Constant
Bit rate                                 : 192 kb/s
Channel(s)                               : 2 channels
Channel positions                        : Front: L R
Sampling rate                            : 48.0 kHz
Frame rate                               : 31.250 FPS (1536 spf)
Compression mode                         : Lossy
Delay relative to video                  : -83 ms
Stream size                              : 133 MiB (1%)
Title                                    : Rus
Language                                 : Russian
Default                                  : No
Forced                                   : No
Audio #2
ID                                       : 3
Format                                   : DTS
Format/Info                              : Digital Theater Systems
Format profile                           : MA / Core
Mode                                     : 16
Format settings, Endianness              : Big
Codec ID                                 : A_DTS
Duration                                 : 1 h 37 min
Bit rate mode                            : Variable / Constant
Bit rate                                 : 1 877 kb/s / 1 509 kb/s
Channel(s)                               : 6 channels
Channel positions                        : Front: L C R, Side: L R, LFE
Sampling rate                            : 48.0 kHz
Frame rate                               : 93.750 FPS (512 spf)
Bit depth                                : 16 bits
Compression mode                         : Lossless / Lossy
Delay relative to video                  : -83 ms
Stream size                              : 1.27 GiB (13%)
Language                                 : Spanish
Default                                  : Yes
Forced                                   : No
Text #1
ID                                       : 4
Format                                   : PGS
Muxing mode                              : zlib
Codec ID                                 : S_HDMV/PGS
Codec ID/Info                            : Picture based subtitle format used on BDs/HD-DVDs
Duration                                 : 1 h 36 min
Bit rate                                 : 12.0 kb/s
Count of elements                        : 2692
Stream size                              : 8.29 MiB (0%)
Title                                    : English
Language                                 : English
Default                                  : No
Forced                                   : No
Text #2
ID                                       : 5
Format                                   : PGS
Muxing mode                              : zlib
Codec ID                                 : S_HDMV/PGS
Codec ID/Info                            : Picture based subtitle format used on BDs/HD-DVDs
Duration                                 : 1 h 32 min
Bit rate                                 : 13.4 kb/s
Count of elements                        : 2630
Stream size                              : 8.83 MiB (0%)
Title                                    : Spanish
Language                                 : Spanish
Default                                  : No
Forced                                   : No
Text #3
ID                                       : 6
Format                                   : UTF-8
Codec ID                                 : S_TEXT/UTF8
Codec ID/Info                            : UTF-8 Plain Text
Duration                                 : 16 s 169 ms
Bit rate                                 : 21 b/s
Count of elements                        : 1
Stream size                              : 44.0 Bytes (0%)
Title                                    : Spanish Sub
Language                                 : Spanish
Default                                  : Yes
Forced                                   : Yes
Menu
00:00:00.000                             : en:00:00:00.000
00:08:19.125                             : en:00:08:19.125
00:15:25.000                             : en:00:15:25.000
00:24:27.750                             : en:00:24:27.750
00:32:51.000                             : en:00:32:51.000
00:40:48.000                             : en:00:40:48.000
00:47:01.250                             : en:00:47:01.250
00:57:25.000                             : en:00:57:25.000
01:06:16.000                             : en:01:06:16.000
01:15:22.625                             : en:01:15:22.625
01:21:01.250                             : en:01:21:01.250
01:27:07.500                             : en:01:27:07.500
01:32:31.000                             : en:01:32:31.000
Скриншоты:

[Цитировать]



Показать сообщения:    

Текущее время: 08-Дек 19:12

Часовой пояс: UTC + 3


Вы не можете начинать темы
Вы не можете отвечать на сообщения
Вы не можете редактировать свои сообщения
Вы не можете удалять свои сообщения
Вы не можете голосовать в опросах
Вы не можете прикреплять файлы к сообщениям
Вы не можете скачивать файлы

!ВНИМАНИЕ!
Сайт не предоставляет электронные версии произведений, а занимается лишь коллекционированием и каталогизацией ссылок, присылаемых и публикуемых на форуме нашими читателями. Если вы являетесь правообладателем какого-либо представленного материала и не желаете, чтобы ссылка на него находилась в нашем каталоге, свяжитесь с нами, и мы незамедлительно удалим ее. Файлы для обмена на трекере предоставлены пользователями сайта, и администрация не несет ответственности за их содержание. Просьба не заливать файлы, защищенные авторскими правами, а также файлы нелегального содержания!