[ Сегодня идет свободное скачивание без начисления Download ]


Статистика раздачи
Нет
 
   
 
Top  
 
 
Человек ниоткуда (2010) DVDRip-AVC Информация о фильме
Название: Человек ниоткуда
Год выхода: 2010
Жанр: боевик
Режиссер: Дмитрий Фикс
В ролях: Владимир Епифанцев, Александр Борисов (II), Александр Кузнецов, Сергей Легостаев, Наталья Лесниковская, Евгения Морозова, Дмитрий Буренков, Тимур Ефременков, Михаил Хмуров
О фильме:
Капитан отдела внедрения МВД Сергей Кутепов возвращается домой в Москву после выполнения опасного задания. Вернувшись, он узнает, что его жена Марина изменяет ему. И это – не единственная проблема, которая свалилась на Кутепова. При попытке внедрения в банду наркоторговца Кесаря погибает друг Кутепова, офицер отдела внедрения Тихонов. Начальство Кутепова подозревает, что Тихонова выдал банде кто-то из своих. Кутепову поручают внедриться в банду Кесаря и найти «крота»

Страна: Россия
Продолжительность: 01:37:37
Перевод: Оригинал [лицензия]
Файл
Качество: DVDRip (AVC)
Видео: MPEG-4 AVC, 1775 кбит/с, 720х476@768х476
Аудио: AC3, 6 ch, 448 кбит/с

MI

General
Unique ID : 251941507560647438807137496684911596375 (0xBD8A2B5B78FD9A079B8BF68D5EEF1357)
Complete name : E:Chelovek.niotkuda.2010.DVDRip.AVC.ExKinoRay.mkv
Format : Matroska
Format version : Version 2
File size : 1.51 GiB
Duration : 1 h 37 min
Overall bit rate : 2 211 kb/s
Movie name : Chelovek niotkuda 2010 from ExKinoRay
Encoded date : UTC 2016-09-02 02:17:31
Writing application : mkvmerge v7.6.0 ('Garden of Dreams') 32bit built on Feb 11 2015 00:18:47
Writing library : libebml v1.3.1 + libmatroska v1.4.2
Video
ID : 1
Format : AVC
Format/Info : Advanced Video Codec
Format profile : High@L4.1
Format settings, CABAC : Yes
Format settings, ReFrames : 13 frames
Codec ID : V_MPEG4/ISO/AVC
Duration : 1 h 37 min
Bit rate : 1 775 kb/s
Width : 720 pixels
Height : 476 pixels
Display aspect ratio : 16:10
Frame rate mode : Constant
Frame rate : 25.000 FPS
Color space : YUV
Chroma subsampling : 4:2:0
Bit depth : 8 bits
Scan type : Progressive
Bits/(Pixel*Frame) : 0.207
Stream size : 1.17 GiB (78%)
Title : Enigma
Writing library : x264 core 144 r2525 40bb568
Encoding settings : cabac=1 / ref=13 / deblock=1:-2:-2 / analyse=0x3:0x113 / me=umh / subme=10 / psy=1 / psy_rd=1.03:0.15 / mixed_ref=1 / me_range=32 / chroma_me=1 / trellis=2 / 8x8dct=1 / cqm=0 / deadzone=21,11 / fast_pskip=0 / chroma_qp_offset=-3 / threads=12 / lookahead_threads=2 / sliced_threads=0 / nr=0 / decimate=0 / interlaced=0 / bluray_compat=0 / constrained_intra=0 / bframes=9 / b_pyramid=2 / b_adapt=2 / b_bias=0 / direct=3 / weightb=1 / open_gop=0 / weightp=2 / keyint=250 / keyint_min=25 / scenecut=40 / intra_refresh=0 / rc=2pass / mbtree=0 / bitrate=1775 / ratetol=1.0 / qcomp=0.60 / qpmin=0 / qpmax=51 / qpstep=4 / cplxblur=20.0 / qblur=0.5 / ip_ratio=1.40 / pb_ratio=1.30 / aq=1:1.00
Language : English
Default : Yes
Forced : No
Color range : Limited
Color primaries : BT.601 PAL
Transfer characteristics : BT.470 System B, BT.470 System G
Matrix coefficients : BT.601
Audio
ID : 2
Format : AC-3
Format/Info : Audio Coding 3
Mode extension : CM (complete main)
Format settings, Endianness : Big
Codec ID : A_AC3
Duration : 1 h 37 min
Bit rate mode : Constant
Bit rate : 448 kb/s
Channel(s) : 6 channels
Channel positions : Front: L C R, Side: L R, LFE
Sampling rate : 48.0 kHz
Frame rate : 31.250 FPS (1536 spf)
Compression mode : Lossy
Stream size : 313 MiB (20%)
Language : Russian
Default : Yes
Forced : No

Скриншоты

[Цитировать]



Показать сообщения:    

Текущее время: 09-Дек 04:53

Часовой пояс: UTC + 3


Вы не можете начинать темы
Вы не можете отвечать на сообщения
Вы не можете редактировать свои сообщения
Вы не можете удалять свои сообщения
Вы не можете голосовать в опросах
Вы не можете прикреплять файлы к сообщениям
Вы не можете скачивать файлы

!ВНИМАНИЕ!
Сайт не предоставляет электронные версии произведений, а занимается лишь коллекционированием и каталогизацией ссылок, присылаемых и публикуемых на форуме нашими читателями. Если вы являетесь правообладателем какого-либо представленного материала и не желаете, чтобы ссылка на него находилась в нашем каталоге, свяжитесь с нами, и мы незамедлительно удалим ее. Файлы для обмена на трекере предоставлены пользователями сайта, и администрация не несет ответственности за их содержание. Просьба не заливать файлы, защищенные авторскими правами, а также файлы нелегального содержания!