[ Сегодня идет свободное скачивание без начисления Download ]


Статистика раздачи
Нет
 
   
 
Top  
 
 
-Метод Фрейда (1-12 серии из 12) (2012) [720p] HDTVRip- Оригинальное название: Метод Фрейда
Год выпуска: 2012
Страна: Россия / "Star media"
Жанр: детектив-
Премьера (РФ): 8 января 2013 (Первый канал)
Режиссер: Михаил Вайнберг
Актеры: Иван Охлобыстин, Наталия Антонова, Елена Николаева, Павел Прилучный, Артур Ваха, Алексей Гришин, Александр Кузнецов, Наталья Рычкова, Алла Подчуфарова, Маргарита Быстрякова, Яна Чигир, Анна Каменкова, Денис Старков, Азамат Нигманов, Александр Воробьёв, Вячеслав Яковлев, Виктор Маркин, Юрий Борисов

Описание фильма:
В следственный отдел прокуратуры введен специальный консультант, гражданский человек Роман Фрейдин, психолог по образованию. Его появление обусловлено необходимостью применения нетрадиционных методов борьбы с преступностью. В молодости Фрейдин объездил всю Россию и Европу, общался с людьми самых разных профессий – от квалифицированных психоаналитиков до народных колдунов и гадалок, от признанных ученых до карточных игроков с сомнительной репутацией. В расследовании преступлений Фрейдин опирается на интуицию и использует научные методики, воссоздает биокинетические картины событий, психофизические портреты преступников, прогнозирует действия бандитов. И каждый раз «залезая в голову» преступника, Фрейдин понимает, что трагедии можно было избежать, и что зачастую человек, нарушивший закон, не мрачный злодей, а запутавшаяся в жизненных обстоятельствах душа-Продолжительность: серия ~ 00:49
Качество видео: HDTVRip 720p
Формат: MKV
Видеокодек: MPEG-4 AVC
Битрейт видео: ~ 4840 kbps avg
Размер кадра: 1280x720 (16:9), 25.000 fps
Аудиокодек: AC3
Аудио: 48,0, 2 ch, 256 Кбит/сек
Субтитры: отсутствуют

MediaInfo:

Формат : Matroska
Версия формата : Version 2
Размер файла : 1,75 Гбайт
Продолжительность : 49 м.
Общий поток : 5095 Кбит/сек
Дата кодирования : UTC 2013-01-09 05:31:00
Программа кодирования : mkvmerge v4.9.1 ('Ich will')
Библиотека кодирования : libebml v1.2.1 + libmatroska v1.1.1
Видео
Идентификатор : 1
Формат : AVC
Формат/Информация : Advanced Video Codec
Профиль формата : High@L4.1
Параметр CABAC формата : Да
Параметр ReFrames формата : 5 кадров
Идентификатор кодека : V_MPEG4/ISO/AVC
Продолжительность : 49 м.
Битрейт : 4840 Кбит/сек
Ширина : 1280 пикселей
Высота : 720 пикселей
Соотношение сторон : 16:9
Режим частоты кадров : Постоянный
Частота кадров : 25,000 кадров/сек
Цветовое пространство : YUV
Субдискретизация насыщенности : 4:2:0
Битовая глубина : 8 бит
Тип развёртки : Прогрессивная
Бит/(Пиксели*Кадры) : 0.210
Размер потока : 1,63 Гбайт (93%)
Библиотека кодирования : x264 core 116 r2044 392e762
Настройки программы : cabac=1 / ref=5 / deblock=1:-1:-1 / analyse=0x3:0x113 / me=umh / subme=10 / psy=1 / psy_rd=0.00:0.10 / mixed_ref=1 / me_range=32 / chroma_me=1 / trellis=2 / 8x8dct=1 / cqm=0 / deadzone=21,11 / fast_pskip=1 / chroma_qp_offset=-1 / threads=12 / sliced_threads=0 / nr=0 / decimate=1 / interlaced=0 / bluray_compat=0 / constrained_intra=0 / bframes=5 / b_pyramid=2 / b_adapt=1 / b_bias=0 / direct=1 / weightb=1 / open_gop=0 / weightp=2 / keyint=250 / keyint_min=25 / scenecut=40 / intra_refresh=0 / rc_lookahead=40 / rc=abr / mbtree=1 / bitrate=4840 / ratetol=1.0 / qcomp=0.60 / qpmin=0 / qpmax=69 / qpstep=4 / ip_ratio=1.40 / aq=1:1.00
Default : Да
Forced : Нет
Аудио
Идентификатор : 2
Формат : AC-3
Формат/Информация : Audio Coding 3
Расширение режима : CM (complete main)
Параметр Endianness формата : Big
Идентификатор кодека : A_AC3
Продолжительность : 49 м.
Вид битрейта : Постоянный
Битрейт : 256 Кбит/сек
Каналы : 2 канала
Расположение каналов : Front: L R
Частота : 48,0 КГц
Битовая глубина : 16 бит
Метод сжатия : С потерями
Размер потока : 90,2 Мбайт (5%)
Default : Да
Forced : Нет
Скриншоты:

Метод Фрейда (2012)Время раздачи: 24/7

[Цитировать]



Показать сообщения:    

Текущее время: 10-Дек 08:08

Часовой пояс: UTC + 3


Вы не можете начинать темы
Вы не можете отвечать на сообщения
Вы не можете редактировать свои сообщения
Вы не можете удалять свои сообщения
Вы не можете голосовать в опросах
Вы не можете прикреплять файлы к сообщениям
Вы не можете скачивать файлы

!ВНИМАНИЕ!
Сайт не предоставляет электронные версии произведений, а занимается лишь коллекционированием и каталогизацией ссылок, присылаемых и публикуемых на форуме нашими читателями. Если вы являетесь правообладателем какого-либо представленного материала и не желаете, чтобы ссылка на него находилась в нашем каталоге, свяжитесь с нами, и мы незамедлительно удалим ее. Файлы для обмена на трекере предоставлены пользователями сайта, и администрация не несет ответственности за их содержание. Просьба не заливать файлы, защищенные авторскими правами, а также файлы нелегального содержания!