[ Сегодня идет свободное скачивание без начисления Download ]


Статистика раздачи
Нет
 
   
 
Top  
 
 
-Метод Фрейда (1-12 серии из 12) (2012) [1080i] HDTV- Оригинальное название: Метод Фрейда
Год выпуска: 2012
Страна: Россия / "Star media"
Жанр: детектив-
Премьера (РФ): 8 января 2013 (Первый канал)
Режиссер: Михаил Вайнберг
Актеры: Иван Охлобыстин, Наталия Антонова, Елена Николаева, Павел Прилучный, Артур Ваха, Алексей Гришин, Александр Кузнецов, Наталья Рычкова, Алла Подчуфарова, Маргарита Быстрякова, Яна Чигир, Анна Каменкова, Денис Старков, Азамат Нигманов, Александр Воробьёв, Вячеслав Яковлев, Виктор Маркин, Юрий Борисов

Описание фильма:
В следственный отдел прокуратуры введен специальный консультант, гражданский человек Роман Фрейдин, психолог по образованию. Его появление обусловлено необходимостью применения нетрадиционных методов борьбы с преступностью. В молодости Фрейдин объездил всю Россию и Европу, общался с людьми самых разных профессий – от квалифицированных психоаналитиков до народных колдунов и гадалок, от признанных ученых до карточных игроков с сомнительной репутацией. В расследовании преступлений Фрейдин опирается на интуицию и использует научные методики, воссоздает биокинетические картины событий, психофизические портреты преступников, прогнозирует действия бандитов. И каждый раз «залезая в голову» преступника, Фрейдин понимает, что трагедии можно было избежать, и что зачастую человек, нарушивший закон, не мрачный злодей, а запутавшаяся в жизненных обстоятельствах душа-Продолжительность: серия ~ 00:50
Качество видео: HDTV 1080i
Контейнер: TS
Видеокодек: AVC
Битрейт видео: ~ 7838 kbps avg
Размер кадра: 1920x1080 (16:9), 25.000 fps
Аудиокодек: AC3
Аудио:
Аудио 1: MPEG Audio 48000Hz stereo 192 Кбит/сек
Аудио 2: AC3 256 Kbps, 2 channels
Субтитры: отсутствуют

MediaInfo:

Format : MPEG-TS
File size : 3.07 GiB
Duration : 50mn 23s
Overall bit rate mode : Variable
Overall bit rate : 8 721 Kbps
Video
ID : 2931 (0xB73)
Menu ID : 1 (0x1)
Format : AVC
Format/Info : Advanced Video Codec
Format profile : High@L4.0
Format settings, CABAC : Yes
Format settings, ReFrames : 4 frames
Codec ID : 27
Duration : 50mn 23s
Bit rate : 7 838 Kbps
Width : 1 920 pixels
Height : 1 080 pixels
Display aspect ratio : 16:9
Frame rate : 25.000 fps
Color space : YUV
Chroma subsampling : 4:2:0
Bit depth : 8 bits
Scan type : MBAFF
Bits/(Pixel*Frame) : 0.151
Stream size : 2.76 GiB (90%)
Audio #1
ID : 2932 (0xB74)
Menu ID : 1 (0x1)
Format : MPEG Audio
Format version : Version 1
Format profile : Layer 2
Codec ID : 3
Duration : 50mn 23s
Bit rate mode : Constant
Bit rate : 192 Kbps
Channel(s) : 2 channels
Sampling rate : 48.0 KHz
Compression mode : Lossy
Stream size : 69.2 MiB (2%)
Audio #2
ID : 2933 (0xB75)
Menu ID : 1 (0x1)
Format : E-AC-3
Format/Info : Audio Coding 3
Format settings, Endianness : Big
Codec ID : 6
Duration : 50mn 23s
Bit rate mode : Constant
Bit rate : 256 Kbps
Channel(s) : 2 channels
Channel positions : Front: L R
Sampling rate : 48.0 KHz
Compression mode : Lossy
Stream size : 92.3 MiB (3%)
Скриншоты:
Метод Фрейда (2012)Время раздачи: 24/7

[Цитировать]



Показать сообщения:    

Текущее время: 08-Дек 12:48

Часовой пояс: UTC + 3


Вы не можете начинать темы
Вы не можете отвечать на сообщения
Вы не можете редактировать свои сообщения
Вы не можете удалять свои сообщения
Вы не можете голосовать в опросах
Вы не можете прикреплять файлы к сообщениям
Вы не можете скачивать файлы

!ВНИМАНИЕ!
Сайт не предоставляет электронные версии произведений, а занимается лишь коллекционированием и каталогизацией ссылок, присылаемых и публикуемых на форуме нашими читателями. Если вы являетесь правообладателем какого-либо представленного материала и не желаете, чтобы ссылка на него находилась в нашем каталоге, свяжитесь с нами, и мы незамедлительно удалим ее. Файлы для обмена на трекере предоставлены пользователями сайта, и администрация не несет ответственности за их содержание. Просьба не заливать файлы, защищенные авторскими правами, а также файлы нелегального содержания!