[ Сегодня идет свободное скачивание без начисления Download ]


Статистика раздачи
Нет
 
   
 
Top  
 
 
-Метод Фрейда (1-12 серии из 12) (2012) DVB- Оригинальное название: Метод Фрейда
Год выпуска: 2012
Страна: Россия / "Star media"
Жанр: детектив-
Премьера (РФ): 8 января 2013 (Первый канал)
Режиссер: Михаил Вайнберг
Актеры: Иван Охлобыстин, Наталия Антонова, Елена Николаева, Павел Прилучный, Артур Ваха, Алексей Гришин, Александр Кузнецов, Наталья Рычкова, Алла Подчуфарова, Маргарита Быстрякова, Яна Чигир, Анна Каменкова, Денис Старков, Азамат Нигманов, Александр Воробьёв, Вячеслав Яковлев, Виктор Маркин, Юрий Борисов

Описание фильма:
В следственный отдел прокуратуры введен специальный консультант, гражданский человек Роман Фрейдин, психолог по образованию. Его появление обусловлено необходимостью применения нетрадиционных методов борьбы с преступностью. В молодости Фрейдин объездил всю Россию и Европу, общался с людьми самых разных профессий – от квалифицированных психоаналитиков до народных колдунов и гадалок, от признанных ученых до карточных игроков с сомнительной репутацией. В расследовании преступлений Фрейдин опирается на интуицию и использует научные методики, воссоздает биокинетические картины событий, психофизические портреты преступников, прогнозирует действия бандитов. И каждый раз «залезая в голову» преступника, Фрейдин понимает, что трагедии можно было избежать, и что зачастую человек, нарушивший закон, не мрачный злодей, а запутавшаяся в жизненных обстоятельствах душа-Продолжительность: серия ~ 00:50
Качество видео: DVB
Видеокодек: MPEG2
Битрейт видео: ~ 4207 kbps avg
Размер кадра: 720x576 (16:9), 25.000 fps
Аудиокодек: MPEG Audio Layer 2
Аудио: 48 kHz, 2 ch, ~192 kbps avg
Субтитры: отсутствуют

MediaInfo:

Формат : MPEG-PS
Размер файла : 1,58 Гбайт
Продолжительность : 50 м.
Режим общего битрейта : Переменный
Общий поток : 4488 Кбит/сек
Библиотека кодирования : (c) 1998-2012 Womble Multimedia, Inc. / MPEG Video Wizard DVD 5.0.1.100 (03/2011) / Sep 7 2012
Видео
Идентификатор : 224 (0xE0)
Формат : MPEG Video
Версия формата : Version 2
Профиль формата : Main@Main
Параметр BVOP формата : Да
Параметр матрицы формата : Выборочная
Продолжительность : 50 м.
Вид битрейта : Переменный
Битрейт : 4207 Кбит/сек
Максимальный битрейт : 15,0 Мбит/сек
Ширина : 720 пикселей
Высота : 576 пикселей
Соотношение сторон : 16:9
Частота кадров : 25,000 кадров/сек
Стандарт вещания : PAL
Цветовое пространство : YUV
Субдискретизация насыщенности : 4:2:0
Битовая глубина : 8 бит
Тип развёртки : Чересстрочная
Порядок развёртки : Верхнее поле первое
Метод сжатия : С потерями
Бит/(Пиксели*Кадры) : 0.406
Размер потока : 1,48 Гбайт (94%)
Библиотека кодирования : (c) 1998-2012 Womble Multimedia, Inc. / MPEG Video Wizard DVD 5.0.1.100 (03/2011)
Аудио
Идентификатор : 192 (0xC0)
Формат : MPEG Audio
Версия формата : Version 1
Профиль формата : Layer 2
Продолжительность : 50 м.
Вид битрейта : Постоянный
Битрейт : 192 Кбит/сек
Каналы : 2 канала
Частота : 48,0 КГц
Метод сжатия : С потерями
Размер потока : 69,2 Мбайт (4%)
Скриншоты:

Метод Фрейда (2012) Время раздачи: 24/7

[Цитировать]



Показать сообщения:    

Текущее время: 11-Дек 16:55

Часовой пояс: UTC + 3


Вы не можете начинать темы
Вы не можете отвечать на сообщения
Вы не можете редактировать свои сообщения
Вы не можете удалять свои сообщения
Вы не можете голосовать в опросах
Вы не можете прикреплять файлы к сообщениям
Вы не можете скачивать файлы

!ВНИМАНИЕ!
Сайт не предоставляет электронные версии произведений, а занимается лишь коллекционированием и каталогизацией ссылок, присылаемых и публикуемых на форуме нашими читателями. Если вы являетесь правообладателем какого-либо представленного материала и не желаете, чтобы ссылка на него находилась в нашем каталоге, свяжитесь с нами, и мы незамедлительно удалим ее. Файлы для обмена на трекере предоставлены пользователями сайта, и администрация не несет ответственности за их содержание. Просьба не заливать файлы, защищенные авторскими правами, а также файлы нелегального содержания!