[ Сегодня идет свободное скачивание без начисления Download ]


Статистика раздачи
Нет
 
   
 
Top  
 
 
Контрибуция (2016) WEB-DLRip - Производство: Россия, Ленфильм
Жанр: Детектив, Военный
Режиссер: Сергей Снежкин
Актеры: Максим Матвеев, Елизавета Боярская, Надежда Толубеева, Илья Носков, Евгений Дятлов, Константин Воробьёв, Артур Ваха, Юрий Ицков, Игорь Черневич, Сергей Перегудов
Описание:
Действие происходит в 1918 году в Перми. Среднесибирский белогвардейский корпус под командованием молодого генерала Анатолия Николаевича Пепеляева захватывает город. Армия измотана, не хватает патронов, обмундирования, провианта. Генерал приглашает пермских купцов с целью собрать деньги для нужд армии. Богатая вдова Чагина приносит в качестве контрибуции дорогой бриллиант. На следующий день бриллиант таинственным образом исчезает. На поиски привлекают приговоренного к смерти «красного» следователя Андрея Мурзина, который должен найти бриллиант в обмен на помилование.

Возраст: 12+ (зрителям, достигшим 12 лет)
Дата российской премьеры: 17 марта 2016, «Ленфильм»
Релиз от: K.E.N
Продолжительность: 02:42:15
Перевод: Не требуется (русский)
Субтитры: Отсутствуют
Качество видео: WEB-DLRip
Видео: 720x304 (2.37:1), 25 fps, XviD build 73 ~1088 kbps, 0.20 bit/pixel
Аудио: 48 kHz, AC3, 2 ch, ~192 kbps

Mediainfo:

Формат                                   : AVI
Формат/Информация                        : Audio Video Interleave
Размер файла                             : 1,46 Гбайт
Продолжительность                        : 2 ч. 42 м.
Общий поток                              : 1291 Кбит/сек
Программа кодирования                    : VirtualDubMod 1.5.10.3 | [url=http://www.virtualdub-fr.org]www.virtualdub-fr.org[/url] || (build 2550/release)
Библиотека кодирования                   : VirtualDubMod build 2550/release
Видео
Идентификатор                            : 0
Формат                                   : MPEG-4 Visual
Профиль формата                          : Advanced [email protected]
Параметр BVOP формата                    : 1
Параметр QPel формата                    : Нет
Параметр GMC формата                     : Без точки перехода
Параметр матрицы формата                 : Выборочная
Идентификатор кодека                     : XVID
Идентификатор кодека/Подсказка           : XviD
Продолжительность                        : 2 ч. 42 м.
Битрейт                                  : 1089 Кбит/сек
Ширина                                   : 720 пикселей
Высота                                   : 304 пикселя
Соотношение сторон                       : 2,35:1
Частота кадров                           : 25,000 кадров/сек
Цветовое пространство                    : YUV
Субдискретизация насыщенности            : 4:2:0
Битовая глубина                          : 8 бит
Тип развёртки                            : Прогрессивная
Метод сжатия                             : С потерями
Бит/(Пиксели*Кадры)                      : 0.199
Размер потока                            : 1,23 Гбайт (84%)
Библиотека кодирования                   : XviD 73
Аудио
Идентификатор                            : 1
Формат                                   : AC-3
Формат/Информация                        : Audio Coding 3
Расширение режима                        : CM (complete main)
Параметр Endianness формата              : Big
Идентификатор кодека                     : 2000
Продолжительность                        : 2 ч. 42 м.
Вид битрейта                             : Постоянный
Битрейт                                  : 192 Кбит/сек
Каналы                                   : 2 канала
Расположение каналов                     : Front: L R
Частота                                  : 48,0 КГц
Битовая глубина                          : 16 бит
Метод сжатия                             : С потерями
Размер потока                            : 223 Мбайт (15%)
Выравнивание                             : Разделение по промежуткам
Продолжительность промежутка             : 40  мс. (1,00 видеокадр)
Время предзагрузки промежутка            : 500  мс.

Дополнительная информация:

К съемкам фильма были привлечены военные историки, которые изучали огромное количество архивных материалов с целью создания костюмов главным героям.
Дом губернатора Перми на самом деле является домом N43 на Советской улице в городе Кронштадт.
Роль Перми в фильме исполнил город Кронштадт.
На момент съемочного периода киностудии не повезло с зимой. Она выдалась крайне бесснежной при том, что в фильме мороз достигает -30 градусов. В Кронштадт, где проходила основная часть съемок, везли снег на грузовиках со всего города, а правительство острова специально попросили не убирать снег.
В некоторых названиях компаний с вывесок в городе Пермь можно увидеть фамилии членов съемочной группы. К примеру: «Велосипедные шины братьев Мачильских», в честь оператора Сергея Мачильского.
Один из двух шикарных ретро-корсетов, пошитых специально на заказ для Елизаветы Боярской мастером по дореволюционным корсетам, отработал свое только на кинопробах, поскольку режиссер с оператором во время съемок решили, что в сцене соблазнения белья не должно быть вообще.
Стол, стулья и диван в кабинете (или «приемной») генерала Пепеляева участвовали в съемках почти всех картин о Шерлоке Холмсе Игоря Масленникова.
Следователь Мурзин в исполнении Ильи Носкова носит настоящие часы старинной европейской марки Moser — эту редкую модель часов, которые были очень популярны в царской России, специально для съемок предоставил один известный петербургский коллекционер антиквариата.
Режиссер Сергей Снежкин внес в расстрельные списки генерала Пепеляева пару человек из съемочной группы.
Съемки исторического детектива проходили с января по март 2015 года на киностудии «Ленфильм», в историческом пятом павильоне, где были выстроены декорации резиденции губернатора города. Кроме того, масштабные сцены с участием большой массовки (более 300 человек) снимали в Кронштадте и Пушкине.
Скриншоты:

[Цитировать]



Показать сообщения:    

Текущее время: 06-Дек 03:54

Часовой пояс: UTC + 3


Вы не можете начинать темы
Вы не можете отвечать на сообщения
Вы не можете редактировать свои сообщения
Вы не можете удалять свои сообщения
Вы не можете голосовать в опросах
Вы не можете прикреплять файлы к сообщениям
Вы не можете скачивать файлы

!ВНИМАНИЕ!
Сайт не предоставляет электронные версии произведений, а занимается лишь коллекционированием и каталогизацией ссылок, присылаемых и публикуемых на форуме нашими читателями. Если вы являетесь правообладателем какого-либо представленного материала и не желаете, чтобы ссылка на него находилась в нашем каталоге, свяжитесь с нами, и мы незамедлительно удалим ее. Файлы для обмена на трекере предоставлены пользователями сайта, и администрация не несет ответственности за их содержание. Просьба не заливать файлы, защищенные авторскими правами, а также файлы нелегального содержания!