[ Today is free to download without increasing Download ]

DL-List and Torrent activity
Complete: [ 1 ]
Шоколад / Chocolat (2016) HDRip - Производство: Франция, Buenavista Films, Canal+, Centre National de la Cinématographie (CNC), Cine
Жанр: Драма
Режиссер: Рошди Зем
Актеры: Омар Си, Джеймс Тьерре, Клотильда Эм, Оливье Гурме, Фредерик Пьеро, Ноэми Львовски, Элис де Ланкесэ, Алекс Дека, Оливье Рабурден, Тибо де Монталембер
Это история первого во Франции чернокожего клоуна, выступавшего в тандеме с белым клоуном, вышедшим было в тираж, а с появлением нового партнера вернувшим себе былую славу. Их номера были чрезвычайно популярны в конце XIX века, но интерес к ним был востребован преимущественно из-за того, что белый клоун издевался над чернокожим.

Возраст: 12+ (зрителям, достигшим 12 лет)
Рейтинг MPAA: PG-13 (детям до 13 лет просмотр нежелателен)
Дата мировой премьеры: 5 января 2016
Дата российской премьеры: 12 мая 2016, «Люксор»
Продолжительность: 01:59:05
Качество видео: HDRip СЭМПЛ
Перевод: Дублированный (iTunes)
Субтитры: Отсутствуют
Видео: Xvid, 720x384, ~24.000 fps, 1356 Кбит/с
Аудио: AC3, 6 ch, 384 kb/s, 48.0 KHz


F:\PC\2016 - Шоколад.D.HDRip [Драма].avi
      Complete name : F:\PC\2016 - Шоколад.D.HDRip [Драма].avi
      Format : AVI
      Format/Info : Audio Video Interleave
      File size : 1.45 GiB
      Duration : 1h 59mn
      Overall bit rate : 1 749 Kbps
      Movie name : W0k0Lad.2016.D.HDRip.1.46GB
      Writing application : VirtualDubMod (build 2540/release)
      Original source form/Name : Movie
   Video #0
      ID : 0
      Format : MPEG-4 Visual
      Format profile : Advanced Simple@L5
      Format settings, BVOP : 2
      Format settings, QPel : No
      Format settings, GMC : No warppoints
      Format settings, Matrix : Default (MPEG)
      Codec ID : XVID
      Codec ID/Hint : XviD
      Duration : 1h 59mn
      Bit rate : 1 356 Kbps
      Width : 720 pixels
      Height : 384 pixels
      Display aspect ratio : 1.85:1
      Frame rate : 24.000 fps
      Color space : YUV
      Chroma subsampling : 4:2:0
      Bit depth : 8 bits
      Scan type : Progressive
      Compression mode : Lossy
      Bits/(Pixel*Frame) : 0.204
      Stream size : 1.13 GiB (78%)
      Writing library : XviD 1.2.1 (UTC 2008-12-04)
   Audio #1
      ID : 1
      Format : AC-3
      Format/Info : Audio Coding 3
      Mode extension : CM (complete main)
      Format settings, Endianness : Big
      Codec ID : 2000
      Duration : 1h 59mn
      Bit rate mode : Constant
      Bit rate : 384 Kbps
      Channel(s) : 6 channels
      Channel positions : Front: L C R, Side: L R, LFE
      Sampling rate : 48.0 KHz
      Frame rate : 31.250 fps (1536 spf)
      Compression mode : Lossy
      Stream size : 327 MiB (22%)
      Alignment : Split accross interleaves
      Interleave, duration : 42 ms (1.00 video frame)
      Interleave, preload duration : 500 ms


Display posts:    

Current time is: 25-Oct 16:52

All times are UTC + 3

You cannot post new topics in this forum
You cannot reply to topics in this forum
You cannot edit your posts in this forum
You cannot delete your posts in this forum
You cannot vote in polls in this forum
You cannot attach files in this forum
You cannot download files in this forum

The site does not give electronic versions of products, and is engaged only in a collecting and cataloguing of the references sent and published at a forum by our readers. If you are the legal owner of any submitted material and do not wish that the reference to it was in our catalogue, contact us and we shall immediately remove her. Files for an exchange on tracker are given by users of a site, and the administration does not bear the responsibility for their maintenance. The request to not fill in the files protected by copyrights, and also files of the illegal maintenance!