[ Сегодня идет свободное скачивание без начисления Download ]


Статистика раздачи
Скачал: [ 1 ]
 
   
 
Top  
 
 
Шоколад / Chocolat (2016) HDRip - Производство: Франция, Buenavista Films, Canal+, Centre National de la Cinématographie (CNC), Cine
Жанр: Драма
Режиссер: Рошди Зем
Актеры: Омар Си, Джеймс Тьерре, Клотильда Эм, Оливье Гурме, Фредерик Пьеро, Ноэми Львовски, Элис де Ланкесэ, Алекс Дека, Оливье Рабурден, Тибо де Монталембер
Описание:
Это история первого во Франции чернокожего клоуна, выступавшего в тандеме с белым клоуном, вышедшим было в тираж, а с появлением нового партнера вернувшим себе былую славу. Их номера были чрезвычайно популярны в конце XIX века, но интерес к ним был востребован преимущественно из-за того, что белый клоун издевался над чернокожим.

Возраст: 12+ (зрителям, достигшим 12 лет)
Рейтинг MPAA: PG-13 (детям до 13 лет просмотр нежелателен)
Дата мировой премьеры: 5 января 2016
Дата российской премьеры: 12 мая 2016, «Люксор»
Продолжительность: 01:59:05
Качество видео: HDRip СЭМПЛ
Перевод: Дублированный (iTunes)
Субтитры: Отсутствуют
Видео: Xvid, 720x384, ~24.000 fps, 1356 Кбит/с
Аудио: AC3, 6 ch, 384 kb/s, 48.0 KHz

Mediainfo:

F:\PC\2016 - Шоколад.D.HDRip [Драма].avi
   General
      Complete name : F:\PC\2016 - Шоколад.D.HDRip [Драма].avi
      Format : AVI
      Format/Info : Audio Video Interleave
      File size : 1.45 GiB
      Duration : 1h 59mn
      Overall bit rate : 1 749 Kbps
      Movie name : W0k0Lad.2016.D.HDRip.1.46GB
      Writing application : VirtualDubMod 1.5.10.2 (build 2540/release)
      Original source form/Name : Movie
   Video #0
      ID : 0
      Format : MPEG-4 Visual
      Format profile : Advanced Simple@L5
      Format settings, BVOP : 2
      Format settings, QPel : No
      Format settings, GMC : No warppoints
      Format settings, Matrix : Default (MPEG)
      Codec ID : XVID
      Codec ID/Hint : XviD
      Duration : 1h 59mn
      Bit rate : 1 356 Kbps
      Width : 720 pixels
      Height : 384 pixels
      Display aspect ratio : 1.85:1
      Frame rate : 24.000 fps
      Color space : YUV
      Chroma subsampling : 4:2:0
      Bit depth : 8 bits
      Scan type : Progressive
      Compression mode : Lossy
      Bits/(Pixel*Frame) : 0.204
      Stream size : 1.13 GiB (78%)
      Writing library : XviD 1.2.1 (UTC 2008-12-04)
   Audio #1
      ID : 1
      Format : AC-3
      Format/Info : Audio Coding 3
      Mode extension : CM (complete main)
      Format settings, Endianness : Big
      Codec ID : 2000
      Duration : 1h 59mn
      Bit rate mode : Constant
      Bit rate : 384 Kbps
      Channel(s) : 6 channels
      Channel positions : Front: L C R, Side: L R, LFE
      Sampling rate : 48.0 KHz
      Frame rate : 31.250 fps (1536 spf)
      Compression mode : Lossy
      Stream size : 327 MiB (22%)
      Alignment : Split accross interleaves
      Interleave, duration : 42 ms (1.00 video frame)
      Interleave, preload duration : 500 ms
Скриншоты:

[Цитировать]



Показать сообщения:    

Текущее время: 09-Дек 01:07

Часовой пояс: UTC + 3


Вы не можете начинать темы
Вы не можете отвечать на сообщения
Вы не можете редактировать свои сообщения
Вы не можете удалять свои сообщения
Вы не можете голосовать в опросах
Вы не можете прикреплять файлы к сообщениям
Вы не можете скачивать файлы

!ВНИМАНИЕ!
Сайт не предоставляет электронные версии произведений, а занимается лишь коллекционированием и каталогизацией ссылок, присылаемых и публикуемых на форуме нашими читателями. Если вы являетесь правообладателем какого-либо представленного материала и не желаете, чтобы ссылка на него находилась в нашем каталоге, свяжитесь с нами, и мы незамедлительно удалим ее. Файлы для обмена на трекере предоставлены пользователями сайта, и администрация не несет ответственности за их содержание. Просьба не заливать файлы, защищенные авторскими правами, а также файлы нелегального содержания!