[ Сегодня идет свободное скачивание без начисления Download ]


Статистика раздачи
Нет
 
   
 
Top  
 
 
Антирождение / Antibirth (2016) WEB-DLRip - Производство: США, Канада
Жанр: Ужасы
Режиссер: Дэнни Перез
Актеры: Наташа Лионн, Хлоя Севиньи, Мег Тилли, Марк Веббер, Максвелл МакКейб-Локос, Эммануэль Кабонго, Невилл Эдвардс, Морган Бедард, Кори Паскаль, Лили Фрэнкс
Описание:
В небольшом удалённом от городов сообществе ходят слухи о похищениях инопланетянами, а ещё все там только и делают, что пьют и принимают наркотики. После одной такой весёлой ночи у Лу обнаруживаются симптомы странного заболевания, а так же её посещают не менее странные видения. И вдобавок она ещё и оказывается беременной.

Дата мировой премьеры: 25 января 2016
Продолжительность: 01:34:14
Качество видео: WEB-DLRip СЭМПЛ
Перевод: Двуголосый закадровый, любительский (RecentFilms)
Видео: Xvid, 720x384, 1694 Кбит/с
Аудио #1: AC3, 2 ch, 192 Кбит/с - Двуголосый закадровый, любительский (RecentFilms)
Аудио #2: AC3, 6 ch, 192 Кбит/с - Оригинал

Mediainfo:

Antibirth.2016.L2.WEB-DLRip.avi
Format                      : AVI
Format/Info                 : Audio Video Interleave
File size                   : 1.38 GiB
Duration                    : 1 h 34 min
Overall bit rate            : 2 092 kb/s
Writing application         : VirtualDubMod 1.5.10.3 | (build 2550/release)
Writing library             : VirtualDubMod build 2550/release
Video
ID                          : 0
Format                      : MPEG-4 Visual
Format profile              : Advanced [email protected]
Format settings, BVOP       : 2
Format settings, QPel       : No
Format settings, GMC        : No warppoints
Format settings, Matrix     : Default (H.263)
Muxing mode                 : Packed bitstream
Codec ID                    : XVID
Codec ID/Hint               : XviD
Duration                    : 1 h 34 min
Bit rate                    : 1 694 kb/s
Width                       : 720 pixels
Height                      : 384 pixels
Display aspect ratio        : 1.85:1
Frame rate                  : 23.976 (24000/1001) FPS
Color space                 : YUV
Chroma subsampling          : 4:2:0
Bit depth                   : 8 bits
Scan type                   : Progressive
Compression mode            : Lossy
Bits/(Pixel*Frame)          : 0.255
Stream size                 : 1.11 GiB (81%)
Writing library             : XviD 66
Audio #1
ID                          : 1
Format                      : AC-3
Format/Info                 : Audio Coding 3
Mode extension              : CM (complete main)
Format settings, Endianness : Big
Codec ID                    : 2000
Duration                    : 1 h 34 min
Bit rate mode               : Constant
Bit rate                    : 192 kb/s
Channel(s)                  : 2 channels
Channel positions           : Front: L R
Sampling rate               : 48.0 kHz
Frame rate                  : 31.250 FPS (1536 spf)
Compression mode            : Lossy
Stream size                 : 129 MiB (9%)
Alignment                   : Split accross interleaves
Interleave, duration        : 42  ms (1.00 video frame)
Interleave, preload duratio : 500  ms
Audio #2
ID                          : 2
Format                      : AC-3
Format/Info                 : Audio Coding 3
Mode extension              : CM (complete main)
Format settings, Endianness : Big
Codec ID                    : 2000
Duration                    : 1 h 34 min
Bit rate mode               : Constant
Bit rate                    : 192 kb/s
Channel(s)                  : 6 channels
Channel positions           : Front: L C R, Side: L R, LFE
Sampling rate               : 48.0 kHz
Frame rate                  : 31.250 FPS (1536 spf)
Compression mode            : Lossy
Stream size                 : 129 MiB (9%)
Alignment                   : Split accross interleaves
Interleave, duration        : 42  ms (1.00 video frame)
Interleave, preload duratio : 500  ms
Скриншоты:

[Цитировать]



Показать сообщения:    

Текущее время: 05-Дек 11:33

Часовой пояс: UTC + 3


Вы не можете начинать темы
Вы не можете отвечать на сообщения
Вы не можете редактировать свои сообщения
Вы не можете удалять свои сообщения
Вы не можете голосовать в опросах
Вы не можете прикреплять файлы к сообщениям
Вы не можете скачивать файлы

!ВНИМАНИЕ!
Сайт не предоставляет электронные версии произведений, а занимается лишь коллекционированием и каталогизацией ссылок, присылаемых и публикуемых на форуме нашими читателями. Если вы являетесь правообладателем какого-либо представленного материала и не желаете, чтобы ссылка на него находилась в нашем каталоге, свяжитесь с нами, и мы незамедлительно удалим ее. Файлы для обмена на трекере предоставлены пользователями сайта, и администрация не несет ответственности за их содержание. Просьба не заливать файлы, защищенные авторскими правами, а также файлы нелегального содержания!