[ Today is free to download without increasing Download ]

DL-List and Torrent activity
Такой же предатель, как и мы / Our Kind of Traitor (2016) HDRip - Производство: Великобритания, Франция
Жанр: Триллер
Режиссер: Сюзанна Уайт
Актеры: Карлос Акоста, Радивойе Буквич, Стеллан Скарсгард, Мария Фомина, Доля Гавански, Григорий Добрыгин, Велибор Топич, Павел Жайда, Юэн МакГрегор, Наоми Харрис
Молодая английская пара, отдыхая в Марокко, заводит знакомство с русским олигархом, отмывающим деньги для преступных группировок, чьи лидеры вот-вот спишут его со счетов. Чтобы спасти себя и семью, он предлагает разведке Великобритании море ценных сведений в обмен на защиту и покровительство. Его последняя отчаянная надежда - на «английских джентльменов», которые всегда «играют честно»

Возраст: 18+ (зрителям, достигшим 18 лет. запрещено для детей)
Рейтинг MPAA: R (лицам до 17 лет обязательно присутствие взрослого)
Дата мировой премьеры: 1 мая 2016
Дата российской премьеры: 12 мая 2016, «MEGOGO Distribution»
Продолжительность: 01:47:27
Качество видео: HDRip СЭМПЛ
Перевод: Многоголосый закадровый, профессиональный (официальный звук)
Реклама: присутствуют аудио и видео вставки рекламы.
Видео: Xvid, 720x304, 1568 Кбит/с
Аудио: AC3, 2 ch, 384 kbps


Format                      : AVI
Format/Info                 : Audio Video Interleave
File size                   : 1.46 GiB
Duration                    : 1 h 46 min
Overall bit rate            : 1 961 kb/s
Writing application         : VirtualDubMod (build 2540/release)
Writing library             : VirtualDubMod build 2540/release
ID                          : 0
Format                      : MPEG-4 Visual
Format profile              : Advanced Simple@L5
Format settings, BVOP       : 2
Format settings, QPel       : No
Format settings, GMC        : No warppoints
Format settings, Matrix     : Custom
Codec ID                    : XVID
Codec ID/Hint               : XviD
Duration                    : 1 h 46 min
Bit rate                    : 1 568 kb/s
Width                       : 720 pixels
Height                      : 304 pixels
Display aspect ratio        : 2.35:1
Frame rate                  : 24.000 FPS
Color space                 : YUV
Chroma subsampling          : 4:2:0
Bit depth                   : 8 bits
Scan type                   : Progressive
Compression mode            : Lossy
Bits/(Pixel*Frame)          : 0.298
Stream size                 : 1.17 GiB (80%)
Writing library             : XviD 1.2.1 (UTC 2008-12-04)
ID                          : 1
Format                      : AC-3
Format/Info                 : Audio Coding 3
Mode extension              : CM (complete main)
Format settings, Endianness : Big
Codec ID                    : 2000
Duration                    : 1 h 46 min
Bit rate mode               : Constant
Bit rate                    : 384 kb/s
Channel(s)                  : 2 channels
Channel positions           : Front: L R
Sampling rate               : 48.0 kHz
Frame rate                  : 31.250 FPS (1536 spf)
Compression mode            : Lossy
Stream size                 : 292 MiB (20%)
Alignment                   : Split accross interleaves
Interleave, duration        : 42  ms (1.00 video frame)
Interleave, preload duratio : 500  ms


Display posts:    

Current time is: 24-Oct 15:23

All times are UTC + 3

You cannot post new topics in this forum
You cannot reply to topics in this forum
You cannot edit your posts in this forum
You cannot delete your posts in this forum
You cannot vote in polls in this forum
You cannot attach files in this forum
You cannot download files in this forum

The site does not give electronic versions of products, and is engaged only in a collecting and cataloguing of the references sent and published at a forum by our readers. If you are the legal owner of any submitted material and do not wish that the reference to it was in our catalogue, contact us and we shall immediately remove her. Files for an exchange on tracker are given by users of a site, and the administration does not bear the responsibility for their maintenance. The request to not fill in the files protected by copyrights, and also files of the illegal maintenance!