[ Сегодня идет свободное скачивание без начисления Download ]


Статистика раздачи
Нет
 
   
 
Top  
 
 
-Золотой запас (1-24 серии из 24) (2012) DVB - Русское название: Золотой запас
Год выпуска: 2012
Производство: Россия, ООО «Леан-М», ООО ПЦ «Браво» по заказу НТВ
Жанр: боевик, драма, криминал

Премьера: 13 августа 2012 (НТВ)
Режиссер: Мурад Алиев, Дмитрий Матов
Актеры: Михаил Мамаев, Лилия Мэй, Михаил Хмуров, Александр Зельский, Игорь Волков, Сейдулла Молдаханов, Екатерина Чебышева, Илья Оболонков, Андрей Харыбин, Роман Синицын, Дмитрий Калистратов, Юрий Назаров, Игорь Савочкин, Сергей Беляев, Ольга Хохлова, Юрий Гурьев, Дмитрий Скачков, Андрей Сорокин (II), Алексей Нестеров, Андрюс Паулавичюс, Константин Адаев, Роман Калькаев, Бесо Гатаев, Елена Шамова, Фаридуншо Рахматуллоев, Александр Андриенко, Виталий Махов, Андрей Заводюк, Михаил Самохвалов, Сергей Кагаков, Роман Гредин, Сергей Самородов, Михаил Колядин, Поля Полякова
Описание фильма:
Капитан погранвойск в отставке Сергей Бронников возвращается в родной сибирский городок, чтобы осесть там навсегда. Его отец, геолог на пенсии, делится с сыном тайной. Оказывается, он нашел богатейшую золотую жилу! К несчастью, об этом узнает «крестный отец» всего города, владелец нелегального золотого рудника Мезенцев. Старый геолог умирает под пытками, а его сына похищают и увозят в тайгу на рудник, чтобы выпытать у него дорогу к золоту. Так Сергей становится одним из рабов на нелегальных рудниках — одним из тех, кого никто не ищет и чья жизнь ничего не стоит. Все, что он успевает перед похищением, — это сообщить о смерти отца своему бывшему сослуживцу, офицеру ФСБ Стасу Шеремету. Тот тут же отправляется на помощь другу. Ему предстоит самому стать подозреваемым, попасть в розыск, исчезнуть и пройти через тайгу, чтобы найти и выручить бывшего товарища-однополчанина.
Продолжительность: серия ~ 00:41
Качество видео: DVB
Видеокодек: MPEG2
Формат: MPEG
Битрейт видео: ~5140 kbps avg
Размер кадра: 720x576**768х576 (4:3), 25.000 fps
Аудиокодек: MPEG Audio Layer 2
Аудио: 48 kHz, 2 ch, ~192 kbps avg
Субтитры: отсутствуют

MediaInfo:

Формат : MPEG-PS
Размер файла : 1,59 Гбайт
Продолжительность : 41 м.
Режим общего битрейта : Переменный
Общий поток : 5442 Кбит/сек
Библиотека кодирования : (c) 1998-2010 Womble Multimedia, Inc. / MPEG Video Wizard DVD 5.0.0.114
Видео
Идентификатор : 224 (0xE0)
Формат : MPEG Video
Версия формата : Version 2
Профиль формата : [email protected]
Параметр BVOP формата : Да
Параметр матрицы формата : Выборочная
Параметр GOP формата : M=3, N=24
Продолжительность : 41 м.
Вид битрейта : Переменный
Битрейт : 5142 Кбит/сек
Максимальный битрейт : 15,0 Мбит/сек
Ширина : 720 пикселей
Высота : 576 пикселей
Соотношение сторон : 4:3
Частота кадров : 25,000 кадров/сек
Стандарт вещания : PAL
Цветовое пространство : YUV
Субдискретизация насыщенности : 4:2:0
Битовая глубина : 8 бит
Тип развёртки : Чересстрочная
Порядок развёртки : Верхнее поле первое
Метод сжатия : С потерями
Бит/(Пиксели*Кадры) : 0.496
Размер потока : 1,50 Гбайт (94%)
Библиотека кодирования : (c) 1998-2010 Womble Multimedia, Inc. / MPEG Video Wizard DVD 5.0.0.114
Аудио
Идентификатор : 192 (0xC0)
Формат : MPEG Audio
Версия формата : Version 1
Профиль формата : Layer 2
Продолжительность : 41 м.
Вид битрейта : Постоянный
Битрейт : 192 Кбит/сек
Каналы : 2 канала
Частота : 48,0 КГц
Метод сжатия : С потерями
Размер потока : 57,4 Мбайт (4%)
Скриншоты:

Золотой запас [24 серии из 24] (2012) SATRipВремя раздачи: 24/7

[Цитировать]



Показать сообщения:    

Текущее время: 04-Дек 06:58

Часовой пояс: UTC + 3


Вы не можете начинать темы
Вы не можете отвечать на сообщения
Вы не можете редактировать свои сообщения
Вы не можете удалять свои сообщения
Вы не можете голосовать в опросах
Вы не можете прикреплять файлы к сообщениям
Вы не можете скачивать файлы

!ВНИМАНИЕ!
Сайт не предоставляет электронные версии произведений, а занимается лишь коллекционированием и каталогизацией ссылок, присылаемых и публикуемых на форуме нашими читателями. Если вы являетесь правообладателем какого-либо представленного материала и не желаете, чтобы ссылка на него находилась в нашем каталоге, свяжитесь с нами, и мы незамедлительно удалим ее. Файлы для обмена на трекере предоставлены пользователями сайта, и администрация не несет ответственности за их содержание. Просьба не заливать файлы, защищенные авторскими правами, а также файлы нелегального содержания!