[ Сегодня идет свободное скачивание без начисления Download ]


Статистика раздачи
Нет
 
   
 
Top  
 
 
Покушение [1-8 серии из 8] (2010) DVDRip-AVC- Оригинальное название: Покушение
Год выпуска: 2010
Страна: Беларусь / "Беларусьфильм", Белтелерадиокомпания, компания "Арт Синема Груп"
Жанр: боевик, военный-
Премьера:
11 мая 2010 (Украина), 17 октября 2011 (ТВЦ, Россия)
Режиссер: Александр Ефремов
Актеры: Дмитрий Певцов, Данила Козловский, Алина Сергеева, Александр Феклистов, Магдалена Гурская, Иван Мацкевич, Анатолий Терпицкий, Павел Южаков-Харланчук, Станислав Дужников, Владас Багдонас, Алексей Шлямин, Павел Делонг, Игорь Сигов, Анатолий Котенёв, Александр Тимошкин, Валерия Арланова, Александр Ткаченок, Геннадий Овсянников, Алеся Пуховая, Андрей Олиференко, Игорь Подливальчев, Святослав Астрамович, Джемал Тетруашвили, Михаил Есьман, Ольга Нефедова, Андрей Попков...

Описание фильма: История начинается перед Великой Отечественной войной. Джан и капитан Красной Армии Евгений Костин любят друг друга. Но в девушку также влюблён генерал Данилов. В июне 1941-го Костин отбывает к новому месту службы. Начинается война. Родной город Джан захватывают немцы. Костин ранен, но преодолевает сотни вёрст, чтобы найти любимую. И в её городе находит лишь… могилу. Потеряв от горя контроль над собой, Костин оказывается в руках врагов. Сотрудник абвера Чертов вербует его. Став высококлассным разведчиком, Костин делает всё, чтобы обрести доверие немцев и одновременно не принести вреда своей стране. Войска Данилова освобождают от врага родной город Джан. И тогда же в главное управление контрразведки СМЕРШ поступает шифровка из гитлеровского тыла: "Абвер готовит покушение на генерала Данилова. Макс". Чекисты в недоумении - Макс погиб в 1943 году в Иране. На самом деле шифровку послал Костин.......-Продолжительность: серия: ~ 00:44
Качество видео: DVDRip-AVC
Формат: MKV
Видеокодек: MPEG-4 AVC
Битрейт видео: ~1310 kbps avg, 25,000 fps, 0.182 bit/pixel
Размер кадра: 720x400 (16:9)
Аудиокодек: AC3
Аудио: 48.0 kHz, AC3, 6 ch, ~448 Kbps avg
Субтитры: отсутствуют

MediaInfo:

Формат : Matroska
Версия формата : Version 2
Размер файла : 554 Мбайт
Продолжительность : 44 м.
Общий поток : 1759 Кбит/сек
Дата кодирования : UTC 2011-10-28 17:09:24
Программа кодирования : mkvmerge v4.9.1 ('Ich will') built on Jul 11 2011 23:53:15
Библиотека кодирования : libebml v1.2.1 + libmatroska v1.1.1
Видео
Идентификатор : 1
Формат : AVC
Формат/Информация : Advanced Video Codec
Профиль формата : High@L4.1
Параметр CABAC формата : Да
Параметр ReFrames формата : 8 кадров
Идентификатор кодека : V_MPEG4/ISO/AVC
Продолжительность : 44 м.
Битрейт : 1310 Кбит/сек
Ширина : 720 пикселей
Высота : 400 пикселей
Соотношение сторон : 16:9
Режим частоты кадров : Постоянный
Частота кадров : 25,000 кадров/сек
Цветовое пространство : YUV
Субдискретизация насыщенности : 4:2:0
Битовая глубина : 8 бит
Тип развёртки : Прогрессивная
Бит/(Пиксели*Кадры) : 0.182
Размер потока : 402 Мбайт (73%)
Библиотека кодирования : x264 core 116 r2074 2641b9e
Настройки программы : cabac=1 / ref=8 / deblock=1:-1:-1 / analyse=0x3:0x113 / me=umh / subme=7 / psy=1 / psy_rd=1.00:0.00 / mixed_ref=1 / me_range=16 / chroma_me=1 / trellis=2 / 8x8dct=1 / cqm=0 / deadzone=21,11 / fast_pskip=1 / chroma_qp_offset=-2 / threads=3 / sliced_threads=0 / nr=0 / decimate=1 / interlaced=0 / bluray_compat=0 / constrained_intra=0 / bframes=3 / b_pyramid=0 / b_adapt=2 / b_bias=0 / direct=3 / weightb=1 / open_gop=0 / weightp=2 / keyint=250 / keyint_min=25 / scenecut=40 / intra_refresh=0 / rc_lookahead=40 / rc=2pass / mbtree=1 / bitrate=1310 / ratetol=1.0 / qcomp=0.60 / qpmin=10 / qpmax=51 / qpstep=4 / cplxblur=20.0 / qblur=0.5 / vbv_maxrate=17500 / vbv_bufsize=14000 / nal_hrd=none / ip_ratio=1.40 / aq=1:1.00
Default : Да
Forced : Нет
Аудио
Идентификатор : 2
Формат : AC-3
Формат/Информация : Audio Coding 3
Расширение режима : CM (complete main)
Параметр Endianness формата : Big
Идентификатор кодека : A_AC3
Продолжительность : 44 м.
Вид битрейта : Постоянный
Битрейт : 448 Кбит/сек
Каналы : 6 каналов
Расположение каналов : Front: L C R, Side: L R, LFE
Частота : 48,0 КГц
Битовая глубина : 16 бит
Метод сжатия : С потерями
Размер потока : 141 Мбайт (25%)
Default : Да
Forced : Нет
Скриншоты:

[Цитировать]



Показать сообщения:    

Текущее время: 07-Дек 11:41

Часовой пояс: UTC + 3


Вы не можете начинать темы
Вы не можете отвечать на сообщения
Вы не можете редактировать свои сообщения
Вы не можете удалять свои сообщения
Вы не можете голосовать в опросах
Вы не можете прикреплять файлы к сообщениям
Вы не можете скачивать файлы

!ВНИМАНИЕ!
Сайт не предоставляет электронные версии произведений, а занимается лишь коллекционированием и каталогизацией ссылок, присылаемых и публикуемых на форуме нашими читателями. Если вы являетесь правообладателем какого-либо представленного материала и не желаете, чтобы ссылка на него находилась в нашем каталоге, свяжитесь с нами, и мы незамедлительно удалим ее. Файлы для обмена на трекере предоставлены пользователями сайта, и администрация не несет ответственности за их содержание. Просьба не заливать файлы, защищенные авторскими правами, а также файлы нелегального содержания!