[ Сегодня идет свободное скачивание без начисления Download ]


Статистика раздачи
Нет
 
   
 
Top  
 
 
Шурочка (1982) DVB Информация о фильме
Название: Шурочка
Год выхода: 1982
Жанр: драма, исторический, экранизация
Режиссер: Иосиф Хейфиц
В ролях: Елена Финогеева, Андрей Николаев, Людмила Гурченко, Константин Григорьев, Станислав Садальский, Николай Скоробогатов, Валентин Смирнитский, Николай Ферапонтов, Иван Дмитриев, Юрий Медведев, Р. Илюткин
О фильме:
Экранизация повести Александра Куприна "Поединок".
На фоне пошлых полковых дам появляется образ Шурочки Николаевой, наделенной умом, остроумием, женским обаянием и изяществом. Она для Ромашова как луч света в темном царстве...
Доп. информация:
Сценарист: Иосиф Хейфиц
Оператор: Дмитрий Долинин
Композитор: Олег Каравайчук
Художник: Владимир Светозаров
Производство: Ленфильм
Премьера: 22 августа 1983
Запись потока *.ts с наземного цифрового телеканала "Беларусь 3".

Благодарность: за помощь с недостающим материалом Bartimeyse. Большое спасибо!
Страна: СССР
Студия: Ленфильм
Продолжительность: 01:32:29
Перевод: не требует
Файл
Кодек: AVC (H264)
Качество: DVB
Видео: MPEG4 Video (H264) 720(785)x576 (49:36) 25fps, 2 267 Kbps
Звук: MPEG Audio 48000Hz stereo 256kbps
Семпл

MediaInfo

General
ID : 1 (0x1)
Complete name : D:Новая земля 2Художественные фильмыШурочка (1982)Шурочка (1982).ts
Format : MPEG-TS
File size : 1.72 GiB
Duration : 1h 32mn
Overall bit rate mode : Variable
Overall bit rate : 2 657 Kbps
Video
ID : 513 (0x201)
Menu ID : 1 (0x1)
Format : AVC
Format/Info : Advanced Video Codec
Format profile : Main@L3.0
Format settings, CABAC : Yes
Format settings, ReFrames : 4 frames
Format settings, GOP : M=4, N=24
Codec ID : 27
Duration : 1h 32mn
Bit rate : 2 267 Kbps
Width : 720 pixels
Height : 576 pixels
Display aspect ratio : 4:3
Frame rate : 25.000 fps
Standard : PAL
Color space : YUV
Chroma subsampling : 4:2:0
Bit depth : 8 bits
Scan type : MBAFF
Scan order : Top Field First
Bits/(Pixel*Frame) : 0.219
Stream size : 1.46 GiB (85%)
Color primaries : BT.601 PAL
Transfer characteristics : BT.470 System B, BT.470 System G
Matrix coefficients : BT.601
Color range : Limited
Audio
ID : 514 (0x202)
Menu ID : 1 (0x1)
Format : MPEG Audio
Format version : Version 1
Format profile : Layer 2
Codec ID : 3
Duration : 1h 32mn
Bit rate mode : Constant
Bit rate : 256 Kbps
Channel(s) : 2 channels
Sampling rate : 48.0 KHz
Compression mode : Lossy
Stream size : 169 MiB (10%)
Language : English

[Цитировать]



Показать сообщения:    

Текущее время: 08-Дек 01:16

Часовой пояс: UTC + 3


Вы не можете начинать темы
Вы не можете отвечать на сообщения
Вы не можете редактировать свои сообщения
Вы не можете удалять свои сообщения
Вы не можете голосовать в опросах
Вы не можете прикреплять файлы к сообщениям
Вы не можете скачивать файлы

!ВНИМАНИЕ!
Сайт не предоставляет электронные версии произведений, а занимается лишь коллекционированием и каталогизацией ссылок, присылаемых и публикуемых на форуме нашими читателями. Если вы являетесь правообладателем какого-либо представленного материала и не желаете, чтобы ссылка на него находилась в нашем каталоге, свяжитесь с нами, и мы незамедлительно удалим ее. Файлы для обмена на трекере предоставлены пользователями сайта, и администрация не несет ответственности за их содержание. Просьба не заливать файлы, защищенные авторскими правами, а также файлы нелегального содержания!