[ Сегодня идет свободное скачивание без начисления Download ]


Статистика раздачи
Скачал: [ 2 ]
 
   
 
Top  
 
 
К черту на рога / Quo vado? (2016) HDRip - Производство: Италия
Жанр: Комедия
Режиссер: Дженнаро Нунцианте
Актеры: Кекко Дзалоне, Элеонора Джованарди, Соня Бергамаско, Маурицио Микели, Лино Банфи, Людовика Модуньо, Антонино Брускетта, Паоло Пьеробон, Азурра Мартино, Фабио Касале
Описание:
15 лет верой и правдой служил Кекко своему народу — с утра до ночи, не жалея сил, просиживал штаны в Управлении охоты и рыболовства. Положение, зарплата, куча бонусов, включая милые подарки от посетителей: не жизнь, а сказка. Но пришла беда, откуда не ждали, — в министерстве решили сократить штаты, предложив чиновникам хорошее выходное пособие. Ну, а тем, кто заартачится — добро пожаловать в командировку «к черту на рога». Упрямец Кекко не захотел расставаться с дорогой его сердцу госслужбой — и начался полный приключений период в жизни бюрократа-бездельника. Уж чего только реформаторы не придумывали, чтобы от него избавиться, в какие только медвежьи углы Италии его не посылали — всё бестолку. И тогда министерские изверги отправили Кекко на Северный полюс, думали — в наказание, а оказалось — навстречу сумасшедшей любви.

Возраст: 16+ (зрителям, достигшим 16 лет)
Дата мировой премьеры: 1 января 2016
Дата российской премьеры: 11 августа 2016, «Cinema Prestige»
Продолжительность: 01:28:02
Качество видео: HDRip СЭМПЛ
Перевод: Дублированный (Чистый звук)
Реклама: присутствуют аудио и видео вставки рекламы.
Видео: Xvid, 720х304, 1 767 kb/s
Аудио: AC3, 2 ch, 448 kb/s

Mediainfo:

Quo.Vado.2016.D.HDRip.14OOMB.avi
Format                      : AVI
Format/Info                 : Audio Video Interleave
File size                   : 1.37 GiB
Duration                    : 1 h 28 min
Overall bit rate            : 2 224 kb/s
Writing application         : VirtualDubMod 1.5.10.2 (build 2540/release)
Writing library             : VirtualDubMod build 2540/release
Video
ID                          : 0
Format                      : MPEG-4 Visual
Format profile              : Advanced Simple@L5
Format settings, BVOP       : 2
Format settings, QPel       : No
Format settings, GMC        : No warppoints
Format settings, Matrix     : Custom
Codec ID                    : XVID
Codec ID/Hint               : XviD
Duration                    : 1 h 28 min
Bit rate                    : 1 767 kb/s
Width                       : 720 pixels
Height                      : 304 pixels
Display aspect ratio        : 2.35:1
Frame rate                  : 23.976 (24000/1001) FPS
Color space                 : YUV
Chroma subsampling          : 4:2:0
Bit depth                   : 8 bits
Scan type                   : Progressive
Compression mode            : Lossy
Bits/(Pixel*Frame)          : 0.337
Stream size                 : 1.09 GiB (79%)
Writing library             : XviD 1.2.1 (UTC 2008-12-04)
Audio
ID                          : 1
Format                      : AC-3
Format/Info                 : Audio Coding 3
Mode extension              : CM (complete main)
Format settings, Endianness : Big
Codec ID                    : 2000
Duration                    : 1 h 28 min
Bit rate mode               : Constant
Bit rate                    : 448 kb/s
Channel(s)                  : 2 channels
Channel positions           : Front: L R
Sampling rate               : 48.0 kHz
Frame rate                  : 31.250 FPS (1536 spf)
Compression mode            : Lossy
Stream size                 : 282 MiB (20%)
Alignment                   : Split accross interleaves
Interleave, duration        : 42  ms (1.00 video frame)
Interleave, preload duratio : 500  ms
Скриншоты:

[Цитировать]



Показать сообщения:    

Текущее время: 10-Дек 02:13

Часовой пояс: UTC + 3


Вы не можете начинать темы
Вы не можете отвечать на сообщения
Вы не можете редактировать свои сообщения
Вы не можете удалять свои сообщения
Вы не можете голосовать в опросах
Вы не можете прикреплять файлы к сообщениям
Вы не можете скачивать файлы

!ВНИМАНИЕ!
Сайт не предоставляет электронные версии произведений, а занимается лишь коллекционированием и каталогизацией ссылок, присылаемых и публикуемых на форуме нашими читателями. Если вы являетесь правообладателем какого-либо представленного материала и не желаете, чтобы ссылка на него находилась в нашем каталоге, свяжитесь с нами, и мы незамедлительно удалим ее. Файлы для обмена на трекере предоставлены пользователями сайта, и администрация не несет ответственности за их содержание. Просьба не заливать файлы, защищенные авторскими правами, а также файлы нелегального содержания!